<?xml version="1.0" standalone="no"?><!DOCTYPE svg PUBLIC "-//W3C//DTD SVG 1.1//EN" "http://www.w3.org/Graphics/SVG/1.1/DTD/svg11.dtd" ><svg version="1.1" xmlns="http://www.w3.org/2000/svg"><defs><font horiz-adv-x="0" id="font"><font-face ascent="728" bbox="-235 -272 964 896" cap-height="708" descent="-272" font-family="Arnhem Display Pro" font-stretch="normal" font-style="italic" font-weight="400" units-per-em="1000" x-height="456" /><missing-glyph horiz-adv-x="500" /><glyph d="M-24 0H148L152 24L124 28C93 33 86 50 100 80L151 192H354L380 84C389 48 386 33 348 28L316 24L312 0H524L528 24L516 28C496 35 487 46 480 76L348 620H308L56 92C35 48 21 34 -4 28L-20 24ZM283 484 344 232H169Z" glyph-name="A" horiz-adv-x="560" unicode="A" /><glyph d="M-32 0H140L144 24L116 28C101 31 96 39 96 48C96 57 101 68 108 80L198 224H375L356 72C352 44 345 33 308 28L280 24L276 0H704L756 184H732C709 128 671 72 640 48C610 32 560 32 536 32C512 32 475 31 449 41L480 296H580C601 276 609 240 612 200H632L660 432H640C627 392 610 356 584 336H485L515 578C544 588 579 588 600 588C620 588 666 588 700 572C721 548 731 508 740 452H764L776 632C759 624 732 620 696 620H408L64 92C37 51 16 33 -8 28L-28 24ZM223 264 418 573 380 264Z" glyph-name="AE" horiz-adv-x="788" unicode="&#198;" /><glyph d="M-32 0H140L144 24L116 28C101 31 96 39 96 48C96 57 101 68 108 80L198 224H375L356 72C352 44 345 33 308 28L280 24L276 0H704L756 184H732C709 128 671 72 640 48C610 32 560 32 536 32C512 32 475 31 449 41L480 296H580C601 276 609 240 612 200H632L660 432H640C627 392 610 356 584 336H485L515 578C544 588 579 588 600 588C620 588 666 588 700 572C721 548 731 508 740 452H764L776 632C759 624 732 620 696 620H408L64 92C37 51 16 33 -8 28L-28 24ZM223 264 418 573 380 264ZM470 684H490L600 756C621 770 634 782 634 800C634 814 621 824 606 824C591 824 579 817 558 792Z" glyph-name="AEacute" horiz-adv-x="788" unicode="&#508;" /><glyph d="M-24 0H148L152 24L124 28C93 33 86 50 100 80L151 192H354L380 84C389 48 386 33 348 28L316 24L312 0H524L528 24L516 28C496 35 487 46 480 76L348 620H308L56 92C35 48 21 34 -4 28L-20 24ZM283 484 344 232H169ZM326 684H346L456 756C477 770 490 782 490 800C490 814 477 824 462 824C447 824 435 817 414 792Z" glyph-name="Aacute" horiz-adv-x="560" unicode="&#193;" /><glyph d="M-24 0H148L152 24L124 28C93 33 86 50 100 80L151 192H354L380 84C389 48 386 33 348 28L316 24L312 0H524L528 24L516 28C496 35 487 46 480 76L348 620H308L56 92C35 48 21 34 -4 28L-20 24ZM283 484 344 232H169ZM334 684C406 684 443 732 450 788H438C434 756 398 724 338 724C278 724 250 756 254 788H242C235 732 262 684 334 684Z" glyph-name="Abreve" horiz-adv-x="560" unicode="&#258;" /><glyph d="M-24 0H148L152 24L124 28C93 33 86 50 100 80L151 192H354L380 84C389 48 386 33 348 28L316 24L312 0H524L528 24L516 28C496 35 487 46 480 76L348 620H308L56 92C35 48 21 34 -4 28L-20 24ZM283 484 344 232H169ZM218 684H234L342 748H346L434 684H450L358 816H346Z" glyph-name="Acircumflex" horiz-adv-x="560" unicode="&#194;" /><glyph d="M-24 0H148L152 24L124 28C93 33 86 50 100 80L151 192H354L380 84C389 48 386 33 348 28L316 24L312 0H524L528 24L516 28C496 35 487 46 480 76L348 620H308L56 92C35 48 21 34 -4 28L-20 24ZM283 484 344 232H169ZM410 684C436 684 462 703 462 736C462 759 444 772 422 772C396 772 370 753 370 720C370 697 388 684 410 684ZM258 684C284 684 310 703 310 736C310 759 292 772 270 772C244 772 218 753 218 720C218 697 236 684 258 684Z" glyph-name="Adieresis" horiz-adv-x="560" unicode="&#196;" /><glyph d="M-24 0H148L152 24L124 28C93 33 86 50 100 80L151 192H354L380 84C389 48 386 33 348 28L316 24L312 0H524L528 24L516 28C496 35 487 46 480 76L348 620H308L56 92C35 48 21 34 -4 28L-20 24ZM283 484 344 232H169ZM326 684H342L282 792C268 817 256 824 242 824C226 824 214 812 214 796C214 782 221 772 236 760Z" glyph-name="Agrave" horiz-adv-x="560" unicode="&#192;" /><glyph d="M-24 0H148L152 24L124 28C93 33 86 50 100 80L151 192H354L380 84C389 48 386 33 348 28L316 24L312 0H524L528 24L516 28C496 35 487 46 480 76L348 620H308L56 92C35 48 21 34 -4 28L-20 24ZM283 484 344 232H169ZM226 684H442L446 728H230Z" glyph-name="Amacron" horiz-adv-x="560" unicode="&#256;" /><glyph d="M-24 0H148L152 24L124 28C93 33 86 50 100 80L151 192H354L380 84C389 48 386 33 348 28L316 24L312 0H474C422 -20 318 -60 318 -128C318 -166 361 -184 410 -184C438 -184 461 -176 474 -168V-148C461 -156 442 -160 426 -160C393 -160 374 -149 374 -120C374 -66 447 -31 494 0H524L528 24L516 28C496 35 487 46 480 76L348 620H308L56 92C35 48 21 34 -4 28L-20 24ZM283 484 344 232H169Z" glyph-name="Aogonek" horiz-adv-x="560" unicode="&#260;" /><glyph d="M-24 0H148L152 24L124 28C93 33 86 50 100 80L151 192H354L380 84C389 48 386 33 348 28L316 24L312 0H524L528 24L516 28C496 35 487 46 480 76L348 620H308L56 92C35 48 21 34 -4 28L-20 24ZM283 484 344 232H169ZM334 684C381 684 430 715 430 768C430 807 395 828 354 828C307 828 258 797 258 744C258 705 293 684 334 684ZM338 700C313 700 298 718 298 744C298 781 319 812 350 812C375 812 390 794 390 768C390 731 369 700 338 700Z" glyph-name="Aring" horiz-adv-x="560" unicode="&#197;" /><glyph d="M-24 0H148L152 24L124 28C93 33 86 50 100 80L151 192H354L380 84C389 48 386 33 348 28L316 24L312 0H524L528 24L516 28C496 35 487 46 480 76L348 620H308L56 92C35 48 21 34 -4 28L-20 24ZM283 484 344 232H169ZM222 688H238C241 716 258 740 282 740C322 740 338 684 386 684C430 684 454 728 458 788H442C439 760 422 736 398 736C358 736 342 792 294 792C250 792 226 748 222 688Z" glyph-name="Atilde" horiz-adv-x="560" unicode="&#195;" /><glyph d="M-8 0H240C376 0 480 64 480 188C480 268 412 316 324 328C408 344 488 397 488 488C488 580 416 620 296 620H72L68 596L96 592C131 587 136 576 132 548L72 72C68 44 61 33 24 28L-4 24ZM232 300C320 300 376 264 376 188C376 76 313 32 224 32C214 32 189 31 165 39L197 300ZM288 588C352 588 392 560 392 488C392 390 326 336 240 336H201L231 581C256 588 278 588 288 588Z" glyph-name="B" horiz-adv-x="504" unicode="B" /><glyph d="M28 268C28 92 140 -12 296 -12C368 -12 428 4 476 24L536 192H508C460 96 412 16 300 16C216 16 140 96 140 252C140 478 250 608 380 608C486 608 518 557 528 436H556L572 628H552L532 604C494 624 444 636 384 636C215 636 28 518 28 268Z" glyph-name="C" horiz-adv-x="576" unicode="C" /><glyph d="M28 268C28 92 140 -12 296 -12C368 -12 428 4 476 24L536 192H508C460 96 412 16 300 16C216 16 140 96 140 252C140 478 250 608 380 608C486 608 518 557 528 436H556L572 628H552L532 604C494 624 444 636 384 636C215 636 28 518 28 268ZM350 684H370L480 756C501 770 514 782 514 800C514 814 501 824 486 824C471 824 459 817 438 792Z" glyph-name="Cacute" horiz-adv-x="576" unicode="&#262;" /><glyph d="M28 268C28 92 140 -12 296 -12C368 -12 428 4 476 24L536 192H508C460 96 412 16 300 16C216 16 140 96 140 252C140 478 250 608 380 608C486 608 518 557 528 436H556L572 628H552L532 604C494 624 444 636 384 636C215 636 28 518 28 268ZM382 684H394L518 816H502L398 752H394L302 816H286Z" glyph-name="Ccaron" horiz-adv-x="576" unicode="&#268;" /><glyph d="M234 -68C286 -76 314 -88 314 -116C314 -147 291 -164 250 -164C226 -164 201 -156 186 -148V-168C201 -176 222 -184 254 -184C315 -184 370 -166 370 -108C370 -66 326 -43 278 -36L297 -12C369 -12 428 4 476 24L536 192H508C460 96 412 16 300 16C216 16 140 96 140 252C140 478 250 608 380 608C486 608 518 557 528 436H556L572 628H552L532 604C494 624 444 636 384 636C215 636 28 518 28 268C28 97 133 -5 281 -12Z" glyph-name="Ccedilla" horiz-adv-x="576" unicode="&#199;" /><glyph d="M28 268C28 92 140 -12 296 -12C368 -12 428 4 476 24L536 192H508C460 96 412 16 300 16C216 16 140 96 140 252C140 478 250 608 380 608C486 608 518 557 528 436H556L572 628H552L532 604C494 624 444 636 384 636C215 636 28 518 28 268ZM270 684H286L394 748H398L486 684H502L410 816H398Z" glyph-name="Ccircumflex" horiz-adv-x="576" unicode="&#264;" /><glyph d="M28 268C28 92 140 -12 296 -12C368 -12 428 4 476 24L536 192H508C460 96 412 16 300 16C216 16 140 96 140 252C140 478 250 608 380 608C486 608 518 557 528 436H556L572 628H552L532 604C494 624 444 636 384 636C215 636 28 518 28 268ZM386 684C417 684 438 713 438 744C438 769 423 788 398 788C367 788 346 759 346 728C346 703 361 684 386 684Z" glyph-name="Cdotaccent" horiz-adv-x="576" unicode="&#266;" /><glyph d="M-12 0H240C417 0 600 111 600 352C600 522 493 620 300 620H64L60 596L88 592C123 587 132 576 128 548L68 72C64 44 57 33 20 28L-8 24ZM296 588C425 588 492 512 492 380C492 139 382 32 236 32C215 32 187 32 161 42L227 577C252 585 279 588 296 588Z" glyph-name="D" horiz-adv-x="612" unicode="D" /><glyph d="M-12 0H240C417 0 600 111 600 352C600 522 493 620 300 620H64L60 596L88 592C123 587 132 576 128 548L68 72C64 44 57 33 20 28L-8 24ZM296 588C425 588 492 512 492 380C492 139 382 32 236 32C215 32 187 32 161 42L227 577C252 585 279 588 296 588ZM342 684H354L478 816H462L358 752H354L262 816H246Z" glyph-name="Dcaron" horiz-adv-x="612" unicode="&#270;" /><glyph d="M20 300H96L68 72C64 44 57 33 20 28L-8 24L-12 0H240C417 0 600 111 600 352C600 522 493 620 300 620H64L60 596L88 592C123 587 132 576 128 548L101 336H24ZM296 588C425 588 492 512 492 380C492 139 382 32 236 32C215 32 187 32 161 42L193 300H308L312 336H197L227 577C252 585 279 588 296 588Z" glyph-name="Dcroat" horiz-adv-x="592" unicode="&#272;" /><glyph d="M8 0H496L340 636H316ZM280 484 386 40H78Z" glyph-name="Delta" horiz-adv-x="552" unicode="&#8710;" /><glyph d="M-8 0H420L472 184H448C425 128 387 72 356 48C326 32 276 32 252 32C228 32 191 31 165 41L196 296H296C317 276 325 240 328 200H348L376 432H356C343 392 326 356 300 336H201L231 578C260 588 295 588 316 588C336 588 382 588 416 572C437 548 447 508 456 452H480L492 632C475 624 448 620 412 620H68L64 596L92 592C127 587 136 576 132 548L72 72C68 44 61 33 24 28L-4 24Z" glyph-name="E" horiz-adv-x="504" unicode="E" /><glyph d="M-8 0H420L472 184H448C425 128 387 72 356 48C326 32 276 32 252 32C228 32 191 31 165 41L196 296H296C317 276 325 240 328 200H348L376 432H356C343 392 326 356 300 336H201L231 578C260 588 295 588 316 588C336 588 382 588 416 572C437 548 447 508 456 452H480L492 632C475 624 448 620 412 620H68L64 596L92 592C127 587 136 576 132 548L72 72C68 44 61 33 24 28L-4 24ZM274 684H294L404 756C425 770 438 782 438 800C438 814 425 824 410 824C395 824 383 817 362 792Z" glyph-name="Eacute" horiz-adv-x="504" unicode="&#201;" /><glyph d="M-8 0H420L472 184H448C425 128 387 72 356 48C326 32 276 32 252 32C228 32 191 31 165 41L196 296H296C317 276 325 240 328 200H348L376 432H356C343 392 326 356 300 336H201L231 578C260 588 295 588 316 588C336 588 382 588 416 572C437 548 447 508 456 452H480L492 632C475 624 448 620 412 620H68L64 596L92 592C127 587 136 576 132 548L72 72C68 44 61 33 24 28L-4 24ZM310 684C382 684 419 732 426 788H414C410 756 374 724 314 724C254 724 226 756 230 788H218C211 732 238 684 310 684Z" glyph-name="Ebreve" horiz-adv-x="504" unicode="&#276;" /><glyph d="M-8 0H420L472 184H448C425 128 387 72 356 48C326 32 276 32 252 32C228 32 191 31 165 41L196 296H296C317 276 325 240 328 200H348L376 432H356C343 392 326 356 300 336H201L231 578C260 588 295 588 316 588C336 588 382 588 416 572C437 548 447 508 456 452H480L492 632C475 624 448 620 412 620H68L64 596L92 592C127 587 136 576 132 548L72 72C68 44 61 33 24 28L-4 24ZM306 684H318L442 816H426L322 752H318L226 816H210Z" glyph-name="Ecaron" horiz-adv-x="504" unicode="&#282;" /><glyph d="M-8 0H420L472 184H448C425 128 387 72 356 48C326 32 276 32 252 32C228 32 191 31 165 41L196 296H296C317 276 325 240 328 200H348L376 432H356C343 392 326 356 300 336H201L231 578C260 588 295 588 316 588C336 588 382 588 416 572C437 548 447 508 456 452H480L492 632C475 624 448 620 412 620H68L64 596L92 592C127 587 136 576 132 548L72 72C68 44 61 33 24 28L-4 24ZM194 684H210L318 748H322L410 684H426L334 816H322Z" glyph-name="Ecircumflex" horiz-adv-x="504" unicode="&#202;" /><glyph d="M-8 0H420L472 184H448C425 128 387 72 356 48C326 32 276 32 252 32C228 32 191 31 165 41L196 296H296C317 276 325 240 328 200H348L376 432H356C343 392 326 356 300 336H201L231 578C260 588 295 588 316 588C336 588 382 588 416 572C437 548 447 508 456 452H480L492 632C475 624 448 620 412 620H68L64 596L92 592C127 587 136 576 132 548L72 72C68 44 61 33 24 28L-4 24ZM386 684C412 684 438 703 438 736C438 759 420 772 398 772C372 772 346 753 346 720C346 697 364 684 386 684ZM234 684C260 684 286 703 286 736C286 759 268 772 246 772C220 772 194 753 194 720C194 697 212 684 234 684Z" glyph-name="Edieresis" horiz-adv-x="504" unicode="&#203;" /><glyph d="M-8 0H420L472 184H448C425 128 387 72 356 48C326 32 276 32 252 32C228 32 191 31 165 41L196 296H296C317 276 325 240 328 200H348L376 432H356C343 392 326 356 300 336H201L231 578C260 588 295 588 316 588C336 588 382 588 416 572C437 548 447 508 456 452H480L492 632C475 624 448 620 412 620H68L64 596L92 592C127 587 136 576 132 548L72 72C68 44 61 33 24 28L-4 24ZM310 684C341 684 362 713 362 744C362 769 347 788 322 788C291 788 270 759 270 728C270 703 285 684 310 684Z" glyph-name="Edotaccent" horiz-adv-x="504" unicode="&#278;" /><glyph d="M-8 0H420L472 184H448C425 128 387 72 356 48C326 32 276 32 252 32C228 32 191 31 165 41L196 296H296C317 276 325 240 328 200H348L376 432H356C343 392 326 356 300 336H201L231 578C260 588 295 588 316 588C336 588 382 588 416 572C437 548 447 508 456 452H480L492 632C475 624 448 620 412 620H68L64 596L92 592C127 587 136 576 132 548L72 72C68 44 61 33 24 28L-4 24ZM326 684H342L282 792C268 817 256 824 242 824C226 824 214 812 214 796C214 782 221 772 236 760Z" glyph-name="Egrave" horiz-adv-x="504" unicode="&#200;" /><glyph d="M-8 0H420L472 184H448C425 128 387 72 356 48C326 32 276 32 252 32C228 32 191 31 165 41L196 296H296C317 276 325 240 328 200H348L376 432H356C343 392 326 356 300 336H201L231 578C260 588 295 588 316 588C336 588 382 588 416 572C437 548 447 508 456 452H480L492 632C475 624 448 620 412 620H68L64 596L92 592C127 587 136 576 132 548L72 72C68 44 61 33 24 28L-4 24ZM202 684H418L422 728H206Z" glyph-name="Emacron" horiz-adv-x="504" unicode="&#274;" /><glyph d="M-8 0H208L212 24L172 32C129 41 124 56 128 84L175 486L469 19L456 -88C444 -180 413 -208 376 -216C376 -174 371 -128 332 -128C308 -128 284 -147 284 -180C284 -215 316 -240 368 -240C440 -240 489 -184 504 -64L511 -4H512L514 16L515 28H516L580 536C584 564 587 581 624 588L664 596L668 620H452L448 596L488 588C531 579 535 564 532 536L489 172L208 620H64L60 600L84 592C115 582 136 563 136 532L80 84C76 56 73 39 36 32L-4 24Z" glyph-name="Eng" horiz-adv-x="640" unicode="&#330;" /><glyph d="M-8 0H398C346 -20 242 -60 242 -128C242 -166 285 -184 334 -184C362 -184 385 -176 398 -168V-148C385 -156 366 -160 350 -160C317 -160 298 -149 298 -120C298 -66 371 -31 418 0H420L472 184H448C425 128 387 72 356 48C326 32 276 32 252 32C228 32 191 31 165 41L196 296H296C317 276 325 240 328 200H348L376 432H356C343 392 326 356 300 336H201L231 578C260 588 295 588 316 588C336 588 382 588 416 572C437 548 447 508 456 452H480L492 632C475 624 448 620 412 620H68L64 596L92 592C127 587 136 576 132 548L72 72C68 44 61 33 24 28L-4 24Z" glyph-name="Eogonek" horiz-adv-x="504" unicode="&#280;" /><glyph d="M20 300H96L68 72C64 44 57 33 20 28L-8 24L-12 0H240C417 0 600 111 600 352C600 522 493 620 300 620H64L60 596L88 592C123 587 132 576 128 548L101 336H24ZM296 588C425 588 492 512 492 380C492 139 382 32 236 32C215 32 187 32 161 42L193 300H308L312 336H197L227 577C252 585 279 588 296 588Z" glyph-name="Eth" horiz-adv-x="592" unicode="&#208;" /><glyph d="M28 364H100C93 333 90 301 88 268H4L-16 228H88C92 83 163 -12 300 -12C424 -12 480 84 496 152H476C443 76 396 28 320 28C232 28 193 112 192 228H380L404 268H192C193 303 196 335 201 364H452L476 404H209C245 557 330 600 400 600C464 600 517 560 524 484L548 532C531 588 484 636 392 636C253 636 152 544 110 404H48Z" glyph-name="Euro" horiz-adv-x="528" unicode="&#8364;" /><glyph d="M56 364H128C121 333 118 301 116 268H32L12 228H116C120 83 191 -12 328 -12C452 -12 508 84 524 152H504C471 76 424 28 348 28C260 28 221 112 220 228H408L432 268H220C221 303 224 335 229 364H480L504 404H237C273 557 358 600 428 600C492 600 545 560 552 484L576 532C559 588 512 636 420 636C281 636 180 544 138 404H76Z" glyph-name="Euro.PPF" horiz-adv-x="540" /><glyph d="M-8 0H240L244 24L212 28C173 33 164 44 168 72L196 296H296C317 276 325 240 328 200H348L376 432H356C343 392 326 356 300 336H201L231 578C261 588 303 588 324 588C344 588 386 588 420 572C441 548 451 508 460 452H484L496 632C479 624 452 620 416 620H68L64 596L92 592C127 587 136 576 132 548L72 72C68 44 61 33 24 28L-4 24Z" glyph-name="F" horiz-adv-x="480" unicode="F" /><glyph d="M28 268C28 87 144 -12 300 -12C384 -12 464 8 520 36V76L536 208C539 236 543 247 576 252L604 256L608 280H376L372 256L400 252C435 247 444 236 440 208L420 52C393 28 356 16 304 16C213 16 140 100 140 256C140 484 258 608 388 608C494 608 526 557 536 436H564L580 628H560L540 604C502 624 452 636 392 636C217 636 28 520 28 268Z" glyph-name="G" horiz-adv-x="616" unicode="G" /><glyph d="M28 268C28 87 144 -12 300 -12C384 -12 464 8 520 36V76L536 208C539 236 543 247 576 252L604 256L608 280H376L372 256L400 252C435 247 444 236 440 208L420 52C393 28 356 16 304 16C213 16 140 100 140 256C140 484 258 608 388 608C494 608 526 557 536 436H564L580 628H560L540 604C502 624 452 636 392 636C217 636 28 520 28 268ZM386 684C458 684 495 732 502 788H490C486 756 450 724 390 724C330 724 302 756 306 788H294C287 732 314 684 386 684Z" glyph-name="Gbreve" horiz-adv-x="616" unicode="&#286;" /><glyph d="M28 268C28 87 144 -12 300 -12C384 -12 464 8 520 36V76L536 208C539 236 543 247 576 252L604 256L608 280H376L372 256L400 252C435 247 444 236 440 208L420 52C393 28 356 16 304 16C213 16 140 100 140 256C140 484 258 608 388 608C494 608 526 557 536 436H564L580 628H560L540 604C502 624 452 636 392 636C217 636 28 520 28 268ZM238 -104C238 -122 250 -137 278 -140C274 -166 247 -212 222 -232H254C290 -203 330 -153 330 -96C330 -72 314 -52 286 -52C257 -52 238 -76 238 -104Z" glyph-name="Gcedilla" horiz-adv-x="616" /><glyph d="M28 268C28 87 144 -12 300 -12C384 -12 464 8 520 36V76L536 208C539 236 543 247 576 252L604 256L608 280H376L372 256L400 252C435 247 444 236 440 208L420 52C393 28 356 16 304 16C213 16 140 100 140 256C140 484 258 608 388 608C494 608 526 557 536 436H564L580 628H560L540 604C502 624 452 636 392 636C217 636 28 520 28 268ZM270 684H286L394 748H398L486 684H502L410 816H398Z" glyph-name="Gcircumflex" horiz-adv-x="616" unicode="&#284;" /><glyph d="M28 268C28 87 144 -12 300 -12C384 -12 464 8 520 36V76L536 208C539 236 543 247 576 252L604 256L608 280H376L372 256L400 252C435 247 444 236 440 208L420 52C393 28 356 16 304 16C213 16 140 100 140 256C140 484 258 608 388 608C494 608 526 557 536 436H564L580 628H560L540 604C502 624 452 636 392 636C217 636 28 520 28 268ZM238 -104C238 -122 250 -137 278 -140C274 -166 247 -212 222 -232H254C290 -203 330 -153 330 -96C330 -72 314 -52 286 -52C257 -52 238 -76 238 -104Z" glyph-name="Gcommaaccent" horiz-adv-x="616" unicode="&#290;" /><glyph d="M28 268C28 87 144 -12 300 -12C384 -12 464 8 520 36V76L536 208C539 236 543 247 576 252L604 256L608 280H376L372 256L400 252C435 247 444 236 440 208L420 52C393 28 356 16 304 16C213 16 140 100 140 256C140 484 258 608 388 608C494 608 526 557 536 436H564L580 628H560L540 604C502 624 452 636 392 636C217 636 28 520 28 268ZM386 684C417 684 438 713 438 744C438 769 423 788 398 788C367 788 346 759 346 728C346 703 361 684 386 684Z" glyph-name="Gdotaccent" horiz-adv-x="616" unicode="&#288;" /><glyph d="M-8 0H232L236 24L208 28C173 33 164 44 168 72L195 292H467L440 72C436 44 429 33 392 28L364 24L360 0H600L604 24L576 28C541 33 532 44 536 72L596 548C599 576 607 587 644 592L672 596L676 620H436L432 596L460 592C495 587 504 576 500 548L473 336H201L228 548C231 576 239 587 276 592L304 596L308 620H68L64 596L92 592C127 587 136 576 132 548L72 72C68 44 61 33 24 28L-4 24Z" glyph-name="H" horiz-adv-x="652" unicode="H" /><glyph d="M44 448H119L72 72C68 44 61 33 24 28L-4 24L-8 0H232L236 24L208 28C173 33 164 44 168 72L196 292H467L440 72C436 44 429 33 392 28L364 24L360 0H600L604 24L576 28C541 33 532 44 536 72L583 448H652L656 480H587L596 548C599 576 607 587 644 592L672 596L676 620H436L432 596L460 592C495 587 504 576 500 548L491 480H219L228 548C231 576 239 587 276 592L304 596L308 620H68L64 596L92 592C127 587 136 576 132 548L123 480H48ZM215 448H487L473 336H201Z" glyph-name="Hbar" horiz-adv-x="652" unicode="&#294;" /><glyph d="M-8 0H232L236 24L208 28C173 33 164 44 168 72L195 292H467L440 72C436 44 429 33 392 28L364 24L360 0H600L604 24L576 28C541 33 532 44 536 72L596 548C599 576 607 587 644 592L672 596L676 620H436L432 596L460 592C495 587 504 576 500 548L473 336H201L228 548C231 576 239 587 276 592L304 596L308 620H68L64 596L92 592C127 587 136 576 132 548L72 72C68 44 61 33 24 28L-4 24ZM270 684H286L394 748H398L486 684H502L410 816H398Z" glyph-name="Hcircumflex" horiz-adv-x="652" unicode="&#292;" /><glyph d="M-8 0H232L236 24L208 28C173 33 164 44 168 72L228 548C232 576 239 587 276 592L304 596L308 620H68L64 596L92 592C127 587 136 576 132 548L72 72C68 44 61 33 24 28L-4 24Z" glyph-name="I" horiz-adv-x="284" unicode="I" /><glyph d="M268 56C268 16 304 -12 356 -12C440 -12 514 20 532 164L580 548C583 576 591 587 628 592L656 596L660 620H412L408 596L440 592C479 587 487 576 484 548L432 128C422 44 392 16 360 12C360 29 359 43 356 55C350 86 335 100 312 100C291 100 268 84 268 56ZM-8 0H232L236 24L208 28C173 33 164 44 168 72L228 548C232 576 239 587 276 592L304 596L308 620H68L64 596L92 592C127 587 136 576 132 548L72 72C68 44 61 33 24 28L-4 24Z" glyph-name="IJ" horiz-adv-x="632" unicode="&#306;" /><glyph d="M-8 0H232L236 24L208 28C173 33 164 44 168 72L228 548C232 576 239 587 276 592L304 596L308 620H68L64 596L92 592C127 587 136 576 132 548L72 72C68 44 61 33 24 28L-4 24ZM166 684H186L296 756C317 770 330 782 330 800C330 814 317 824 302 824C287 824 275 817 254 792Z" glyph-name="Iacute" horiz-adv-x="284" unicode="&#205;" /><glyph d="M-8 0H232L236 24L208 28C173 33 164 44 168 72L228 548C232 576 239 587 276 592L304 596L308 620H68L64 596L92 592C127 587 136 576 132 548L72 72C68 44 61 33 24 28L-4 24ZM202 684C274 684 311 732 318 788H306C302 756 266 724 206 724C146 724 118 756 122 788H110C103 732 130 684 202 684Z" glyph-name="Ibreve" horiz-adv-x="284" unicode="&#300;" /><glyph d="M-8 0H232L236 24L208 28C173 33 164 44 168 72L228 548C232 576 239 587 276 592L304 596L308 620H68L64 596L92 592C127 587 136 576 132 548L72 72C68 44 61 33 24 28L-4 24ZM86 684H102L210 748H214L302 684H318L226 816H214Z" glyph-name="Icircumflex" horiz-adv-x="284" unicode="&#206;" /><glyph d="M-8 0H232L236 24L208 28C173 33 164 44 168 72L228 548C232 576 239 587 276 592L304 596L308 620H68L64 596L92 592C127 587 136 576 132 548L72 72C68 44 61 33 24 28L-4 24ZM278 684C304 684 330 703 330 736C330 759 312 772 290 772C264 772 238 753 238 720C238 697 256 684 278 684ZM126 684C152 684 178 703 178 736C178 759 160 772 138 772C112 772 86 753 86 720C86 697 104 684 126 684Z" glyph-name="Idieresis" horiz-adv-x="284" unicode="&#207;" /><glyph d="M-8 0H232L236 24L208 28C173 33 164 44 168 72L228 548C232 576 239 587 276 592L304 596L308 620H68L64 596L92 592C127 587 136 576 132 548L72 72C68 44 61 33 24 28L-4 24ZM202 684C233 684 254 713 254 744C254 769 239 788 214 788C183 788 162 759 162 728C162 703 177 684 202 684Z" glyph-name="Idotaccent" horiz-adv-x="284" unicode="&#304;" /><glyph d="M-8 0H232L236 24L208 28C173 33 164 44 168 72L228 548C232 576 239 587 276 592L304 596L308 620H68L64 596L92 592C127 587 136 576 132 548L72 72C68 44 61 33 24 28L-4 24ZM218 684H234L174 792C160 817 148 824 134 824C118 824 106 812 106 796C106 782 113 772 128 760Z" glyph-name="Igrave" horiz-adv-x="284" unicode="&#204;" /><glyph d="M-8 0H232L236 24L208 28C173 33 164 44 168 72L228 548C232 576 239 587 276 592L304 596L308 620H68L64 596L92 592C127 587 136 576 132 548L72 72C68 44 61 33 24 28L-4 24ZM94 684H310L314 728H98Z" glyph-name="Imacron" horiz-adv-x="284" unicode="&#298;" /><glyph d="M-8 0H150C98 -20 -6 -60 -6 -128C-6 -166 37 -184 86 -184C114 -184 137 -176 150 -168V-148C137 -156 118 -160 102 -160C69 -160 50 -149 50 -120C50 -66 123 -31 170 0H232L236 24L208 28C173 33 164 44 168 72L228 548C232 576 239 587 276 592L304 596L308 620H68L64 596L92 592C127 587 136 576 132 548L72 72C68 44 61 33 24 28L-4 24Z" glyph-name="Iogonek" horiz-adv-x="284" unicode="&#302;" /><glyph d="M-8 0H232L236 24L208 28C173 33 164 44 168 72L228 548C232 576 239 587 276 592L304 596L308 620H68L64 596L92 592C127 587 136 576 132 548L72 72C68 44 61 33 24 28L-4 24ZM90 688H106C109 716 126 740 150 740C190 740 206 684 254 684C298 684 322 728 326 788H310C307 760 290 736 266 736C226 736 210 792 162 792C118 792 94 748 90 688Z" glyph-name="Itilde" horiz-adv-x="284" unicode="&#296;" /><glyph d="M-16 56C-16 16 20 -12 72 -12C156 -12 230 20 248 164L296 548C299 576 307 587 344 592L372 596L376 620H128L124 596L156 592C195 587 203 576 200 548L148 128C138 44 108 16 76 12C76 30 75 45 72 57C65 86 50 100 28 100C7 100 -16 84 -16 56Z" glyph-name="J" horiz-adv-x="348" unicode="J" /><glyph d="M-16 56C-16 16 20 -12 72 -12C156 -12 230 20 248 164L296 548C299 576 307 587 344 592L372 596L376 620H128L124 596L156 592C195 587 203 576 200 548L148 128C138 44 108 16 76 12C76 30 75 45 72 57C65 86 50 100 28 100C7 100 -16 84 -16 56ZM150 684H166L274 748H278L366 684H382L290 816H278Z" glyph-name="Jcircumflex" horiz-adv-x="348" unicode="&#308;" /><glyph d="M-8 0H232L236 24L208 28C173 33 164 44 168 72L196 298L220 288L320 112C349 63 385 12 400 0H528L532 24C517 28 499 32 488 40C463 64 434 111 400 168L300 340L512 552C533 572 554 587 580 592L600 596L604 620H404L400 596L424 592C460 586 468 572 444 548L248 336L197 307L228 548C231 576 239 587 276 592L304 596L308 620H68L64 596L92 592C127 587 136 576 132 548L72 72C68 44 61 33 24 28L-4 24Z" glyph-name="K" horiz-adv-x="556" unicode="K" /><glyph d="M-8 0H232L236 24L208 28C173 33 164 44 168 72L196 298L220 288L320 112C349 63 385 12 400 0H528L532 24C517 28 499 32 488 40C463 64 434 111 400 168L300 340L512 552C533 572 554 587 580 592L600 596L604 620H404L400 596L424 592C460 586 468 572 444 548L248 336L197 307L228 548C231 576 239 587 276 592L304 596L308 620H68L64 596L92 592C127 587 136 576 132 548L72 72C68 44 61 33 24 28L-4 24ZM214 -104C214 -122 226 -137 254 -140C250 -166 223 -212 198 -232H230C266 -203 306 -153 306 -96C306 -72 290 -52 262 -52C233 -52 214 -76 214 -104Z" glyph-name="Kcedilla" horiz-adv-x="556" /><glyph d="M-8 0H232L236 24L208 28C173 33 164 44 168 72L196 298L220 288L320 112C349 63 385 12 400 0H528L532 24C517 28 499 32 488 40C463 64 434 111 400 168L300 340L512 552C533 572 554 587 580 592L600 596L604 620H404L400 596L424 592C460 586 468 572 444 548L248 336L197 307L228 548C231 576 239 587 276 592L304 596L308 620H68L64 596L92 592C127 587 136 576 132 548L72 72C68 44 61 33 24 28L-4 24ZM214 -104C214 -122 226 -137 254 -140C250 -166 223 -212 198 -232H230C266 -203 306 -153 306 -96C306 -72 290 -52 262 -52C233 -52 214 -76 214 -104Z" glyph-name="Kcommaaccent" horiz-adv-x="556" unicode="&#310;" /><glyph d="M-8 0H404L460 200H436C409 144 371 72 340 48C310 32 268 32 244 32C227 32 191 32 165 41L228 548C231 576 239 587 280 592L316 596L320 620H68L64 596L92 592C127 587 136 576 132 548L72 72C68 44 61 33 24 28L-4 24Z" glyph-name="L" horiz-adv-x="472" unicode="L" /><glyph d="M-8 0H404L460 200H436C409 144 371 72 340 48C310 32 268 32 244 32C227 32 191 32 165 41L228 548C231 576 239 587 280 592L316 596L320 620H68L64 596L92 592C127 587 136 576 132 548L72 72C68 44 61 33 24 28L-4 24ZM162 684H182L292 756C313 770 326 782 326 800C326 814 313 824 298 824C283 824 271 817 250 792Z" glyph-name="Lacute" horiz-adv-x="472" unicode="&#313;" /><glyph d="M-8 0H404L460 200H436C409 144 371 72 340 48C310 32 268 32 244 32C227 32 191 32 165 41L228 548C231 576 239 587 280 592L316 596L320 620H68L64 596L92 592C127 587 136 576 132 548L72 72C68 44 61 33 24 28L-4 24ZM340 444H372C408 473 448 523 448 580C448 604 432 624 404 624C375 624 356 600 356 572C356 554 368 539 396 536C392 510 365 464 340 444Z" glyph-name="Lcaron" horiz-adv-x="460" unicode="&#317;" /><glyph d="M-8 0H404L460 200H436C409 144 371 72 340 48C310 32 268 32 244 32C227 32 191 32 165 41L228 548C231 576 239 587 280 592L316 596L320 620H68L64 596L92 592C127 587 136 576 132 548L72 72C68 44 61 33 24 28L-4 24ZM172 -104C172 -122 184 -137 212 -140C208 -166 181 -212 156 -232H188C224 -203 264 -153 264 -96C264 -72 248 -52 220 -52C191 -52 172 -76 172 -104Z" glyph-name="Lcedilla" horiz-adv-x="472" /><glyph d="M-8 0H404L460 200H436C409 144 371 72 340 48C310 32 268 32 244 32C227 32 191 32 165 41L228 548C231 576 239 587 280 592L316 596L320 620H68L64 596L92 592C127 587 136 576 132 548L72 72C68 44 61 33 24 28L-4 24ZM172 -104C172 -122 184 -137 212 -140C208 -166 181 -212 156 -232H188C224 -203 264 -153 264 -96C264 -72 248 -52 220 -52C191 -52 172 -76 172 -104Z" glyph-name="Lcommaaccent" horiz-adv-x="472" unicode="&#315;" /><glyph d="M-8 0H404L460 200H436C409 144 371 72 340 48C310 32 268 32 244 32C227 32 191 32 165 41L228 548C231 576 239 587 280 592L316 596L320 620H68L64 596L92 592C127 587 136 576 132 548L72 72C68 44 61 33 24 28L-4 24ZM320 296C351 296 372 325 372 356C372 381 357 400 332 400C301 400 280 371 280 340C280 315 295 296 320 296Z" glyph-name="Ldot" horiz-adv-x="460" unicode="&#319;" /><glyph d="M12 224 97 271 72 72C68 44 61 33 24 28L-4 24L-8 0H404L460 200H436C409 144 371 72 340 48C310 32 268 32 244 32C227 32 191 32 165 41L201 328L344 408L352 448L205 367L228 548C231 576 239 587 280 592L316 596L320 620H68L64 596L92 592C127 587 136 576 132 548L102 309L20 264Z" glyph-name="Lslash" horiz-adv-x="460" unicode="&#321;" /><glyph d="M-8 0H208L212 24L172 32C129 41 124 56 128 84L176 490L324 16H332L608 484L556 72C552 44 545 33 508 28L480 24L476 0H716L720 24L692 28C657 33 648 44 652 72L712 548C716 576 723 587 760 592L788 596L792 620H640L376 164L236 620H72L68 600L92 592C127 580 138 568 137 540L80 84C76 56 73 39 36 32L-4 24Z" glyph-name="M" horiz-adv-x="768" unicode="M" /><glyph d="M-8 0H208L212 24L172 32C129 41 124 56 128 84L175 486L484 -4H512L515 28H516L580 536C584 564 587 581 624 588L664 596L668 620H452L448 596L488 588C531 579 535 564 532 536L489 172L208 620H64L60 600L84 592C115 582 136 563 136 532L80 84C76 56 73 39 36 32L-4 24Z" glyph-name="N" horiz-adv-x="640" unicode="N" /><glyph d="M-8 0H208L212 24L172 32C129 41 124 56 128 84L175 486L484 -4H512L515 28H516L580 536C584 564 587 581 624 588L664 596L668 620H452L448 596L488 588C531 579 535 564 532 536L489 172L208 620H64L60 600L84 592C115 582 136 563 136 532L80 84C76 56 73 39 36 32L-4 24ZM350 684H370L480 756C501 770 514 782 514 800C514 814 501 824 486 824C471 824 459 817 438 792Z" glyph-name="Nacute" horiz-adv-x="640" unicode="&#323;" /><glyph d="M-8 0H208L212 24L172 32C129 41 124 56 128 84L175 486L484 -4H512L515 28H516L580 536C584 564 587 581 624 588L664 596L668 620H452L448 596L488 588C531 579 535 564 532 536L489 172L208 620H64L60 600L84 592C115 582 136 563 136 532L80 84C76 56 73 39 36 32L-4 24ZM382 684H394L518 816H502L398 752H394L302 816H286Z" glyph-name="Ncaron" horiz-adv-x="640" unicode="&#327;" /><glyph d="M-8 0H208L212 24L172 32C129 41 124 56 128 84L175 486L484 -4H512L515 28H516L580 536C584 564 587 581 624 588L664 596L668 620H452L448 596L488 588C531 579 535 564 532 536L489 172L208 620H64L60 600L84 592C115 582 136 563 136 532L80 84C76 56 73 39 36 32L-4 24ZM230 -104C230 -122 242 -137 270 -140C266 -166 239 -212 214 -232H246C282 -203 322 -153 322 -96C322 -72 306 -52 278 -52C249 -52 230 -76 230 -104Z" glyph-name="Ncedilla" horiz-adv-x="640" /><glyph d="M-8 0H208L212 24L172 32C129 41 124 56 128 84L175 486L484 -4H512L515 28H516L580 536C584 564 587 581 624 588L664 596L668 620H452L448 596L488 588C531 579 535 564 532 536L489 172L208 620H64L60 600L84 592C115 582 136 563 136 532L80 84C76 56 73 39 36 32L-4 24ZM230 -104C230 -122 242 -137 270 -140C266 -166 239 -212 214 -232H246C282 -203 322 -153 322 -96C322 -72 306 -52 278 -52C249 -52 230 -76 230 -104Z" glyph-name="Ncommaaccent" horiz-adv-x="640" unicode="&#325;" /><glyph d="M-8 0H208L212 24L172 32C129 41 124 56 128 84L175 486L484 -4H512L515 28H516L580 536C584 564 587 581 624 588L664 596L668 620H452L448 596L488 588C531 579 535 564 532 536L489 172L208 620H64L60 600L84 592C115 582 136 563 136 532L80 84C76 56 73 39 36 32L-4 24ZM274 688H290C293 716 310 740 334 740C374 740 390 684 438 684C482 684 506 728 510 788H494C491 760 474 736 450 736C410 736 394 792 346 792C302 792 278 748 274 688Z" glyph-name="Ntilde" horiz-adv-x="640" unicode="&#209;" /><glyph d="M28 256C28 78 128 -12 280 -12C456 -12 616 137 616 372C616 543 512 636 360 636C181 636 28 483 28 256ZM136 236C136 448 218 608 356 608C460 608 508 522 508 392C508 183 422 16 284 16C180 16 136 104 136 236Z" glyph-name="O" horiz-adv-x="628" unicode="O" /><glyph d="M432 0H788L840 184H816C793 128 755 72 724 48C694 32 644 32 620 32C596 32 559 31 533 41L564 296H664C685 276 693 240 696 200H716L744 432H724C711 392 694 356 668 336H569L599 578C628 588 663 588 684 588C704 588 750 588 784 572C805 548 815 508 824 452H848L860 632C843 624 816 620 780 620H508L501 568C460 612 400 636 324 636C145 636 -8 483 -8 256C-8 78 92 -12 244 -12C317 -12 385 14 439 61ZM100 236C100 448 182 608 320 608C424 608 472 522 472 392C472 183 386 16 248 16C144 16 100 104 100 236Z" glyph-name="OE" horiz-adv-x="872" unicode="&#338;" /><glyph d="M28 256C28 78 128 -12 280 -12C456 -12 616 137 616 372C616 543 512 636 360 636C181 636 28 483 28 256ZM136 236C136 448 218 608 356 608C460 608 508 522 508 392C508 183 422 16 284 16C180 16 136 104 136 236ZM330 684H350L460 756C481 770 494 782 494 800C494 814 481 824 466 824C451 824 439 817 418 792Z" glyph-name="Oacute" horiz-adv-x="628" unicode="&#211;" /><glyph d="M28 256C28 78 128 -12 280 -12C456 -12 616 137 616 372C616 543 512 636 360 636C181 636 28 483 28 256ZM136 236C136 448 218 608 356 608C460 608 508 522 508 392C508 183 422 16 284 16C180 16 136 104 136 236ZM366 684C438 684 475 732 482 788H470C466 756 430 724 370 724C310 724 282 756 286 788H274C267 732 294 684 366 684Z" glyph-name="Obreve" horiz-adv-x="628" unicode="&#334;" /><glyph d="M28 256C28 78 128 -12 280 -12C456 -12 616 137 616 372C616 543 512 636 360 636C181 636 28 483 28 256ZM136 236C136 448 218 608 356 608C460 608 508 522 508 392C508 183 422 16 284 16C180 16 136 104 136 236ZM250 684H266L374 748H378L466 684H482L390 816H378Z" glyph-name="Ocircumflex" horiz-adv-x="628" unicode="&#212;" /><glyph d="M28 256C28 78 128 -12 280 -12C456 -12 616 137 616 372C616 543 512 636 360 636C181 636 28 483 28 256ZM136 236C136 448 218 608 356 608C460 608 508 522 508 392C508 183 422 16 284 16C180 16 136 104 136 236ZM442 684C468 684 494 703 494 736C494 759 476 772 454 772C428 772 402 753 402 720C402 697 420 684 442 684ZM290 684C316 684 342 703 342 736C342 759 324 772 302 772C276 772 250 753 250 720C250 697 268 684 290 684Z" glyph-name="Odieresis" horiz-adv-x="628" unicode="&#214;" /><glyph d="M28 256C28 78 128 -12 280 -12C456 -12 616 137 616 372C616 543 512 636 360 636C181 636 28 483 28 256ZM136 236C136 448 218 608 356 608C460 608 508 522 508 392C508 183 422 16 284 16C180 16 136 104 136 236ZM382 684H398L338 792C324 817 312 824 298 824C282 824 270 812 270 796C270 782 277 772 292 760Z" glyph-name="Ograve" horiz-adv-x="628" unicode="&#210;" /><glyph d="M28 256C28 78 128 -12 280 -12C456 -12 616 137 616 372C616 543 512 636 360 636C181 636 28 483 28 256ZM136 236C136 448 218 608 356 608C460 608 508 522 508 392C508 183 422 16 284 16C180 16 136 104 136 236ZM414 684H430L550 748C573 760 582 775 582 789C582 806 569 812 556 812C542 812 531 806 506 780ZM270 684H286L406 748C429 760 438 775 438 789C438 806 425 812 412 812C398 812 387 806 362 780Z" glyph-name="Ohungarumlaut" horiz-adv-x="628" unicode="&#336;" /><glyph d="M28 256C28 78 128 -12 280 -12C456 -12 616 137 616 372C616 543 512 636 360 636C181 636 28 483 28 256ZM136 236C136 448 218 608 356 608C460 608 508 522 508 392C508 183 422 16 284 16C180 16 136 104 136 236ZM258 684H474L478 728H262Z" glyph-name="Omacron" horiz-adv-x="628" unicode="&#332;" /><glyph d="M36 0H260L280 156C193 170 164 230 164 308C164 446 234 608 384 608C499 608 548 514 548 416C548 300 506 178 384 156L364 0H588L604 148H584C565 92 551 64 504 64H404L412 128C557 147 656 265 656 400C656 544 537 636 388 636C211 636 56 507 56 332C56 223 128 138 244 128L236 64H136C89 64 77 92 72 148H52Z" glyph-name="Omega" horiz-adv-x="680" unicode="&#8486;" /><glyph d="M28 256C28 156 59 84 114 40L28 -76H64L137 23C176 0 225 -12 280 -12C456 -12 616 137 616 372C616 459 589 525 543 570L616 668H580L521 589C478 620 423 636 360 636C181 636 28 483 28 256ZM136 236C136 448 218 608 356 608C414 608 455 580 480 533L158 100C143 136 136 182 136 236ZM508 392C508 183 422 16 284 16C234 16 197 36 173 72L493 502C503 471 508 434 508 392Z" glyph-name="Oslash" horiz-adv-x="628" unicode="&#216;" /><glyph d="M28 256C28 156 59 84 114 40L28 -76H64L137 23C176 0 225 -12 280 -12C456 -12 616 137 616 372C616 459 589 525 543 570L616 668H580L521 589C478 620 423 636 360 636C181 636 28 483 28 256ZM136 236C136 448 218 608 356 608C414 608 455 580 480 533L158 100C143 136 136 182 136 236ZM508 392C508 183 422 16 284 16C234 16 197 36 173 72L493 502C503 471 508 434 508 392ZM330 684H350L460 756C481 770 494 782 494 800C494 814 481 824 466 824C451 824 439 817 418 792Z" glyph-name="Oslashacute" horiz-adv-x="628" unicode="&#510;" /><glyph d="M28 256C28 78 128 -12 280 -12C456 -12 616 137 616 372C616 543 512 636 360 636C181 636 28 483 28 256ZM136 236C136 448 218 608 356 608C460 608 508 522 508 392C508 183 422 16 284 16C180 16 136 104 136 236ZM254 688H270C273 716 290 740 314 740C354 740 370 684 418 684C462 684 486 728 490 788H474C471 760 454 736 430 736C390 736 374 792 326 792C282 792 258 748 254 688Z" glyph-name="Otilde" horiz-adv-x="628" unicode="&#213;" /><glyph d="M-8 0H240L244 24L212 28C173 33 164 44 168 72L191 260C212 251 250 248 268 248C382 248 504 310 504 464C504 572 421 620 288 620H68L64 596L92 592C127 587 136 576 132 548L72 72C68 44 61 33 24 28L-4 24ZM284 588C356 588 404 552 404 464C404 350 339 280 216 280H194L231 582C253 588 274 588 284 588Z" glyph-name="P" horiz-adv-x="492" unicode="P" /><glyph d="M28 256C28 101 103 13 222 -7L300 -96C343 -145 384 -172 452 -172C492 -172 531 -160 548 -148L552 -136C484 -136 439 -123 392 -76L325 -9C482 14 616 157 616 372C616 543 512 636 360 636C181 636 28 483 28 256ZM136 236C136 448 218 608 356 608C460 608 508 522 508 392C508 183 422 16 284 16C180 16 136 104 136 236Z" glyph-name="Q" horiz-adv-x="628" unicode="Q" /><glyph d="M-8 0H232L236 24L208 28C173 33 164 44 168 72L192 264H254L336 104C358 61 380 20 396 0H520L524 24C479 30 463 53 428 120L372 228C359 252 347 272 331 289C415 305 500 368 500 476C500 572 422 620 292 620H68L64 596L92 592C127 587 136 576 132 548L72 72C68 44 61 33 24 28L-4 24ZM288 588C353 588 400 563 400 480C400 365 325 296 228 296H196L231 581C255 588 278 588 288 588Z" glyph-name="R" horiz-adv-x="544" unicode="R" /><glyph d="M-8 0H232L236 24L208 28C173 33 164 44 168 72L192 264H254L336 104C358 61 380 20 396 0H520L524 24C479 30 463 53 428 120L372 228C359 252 347 272 331 289C415 305 500 368 500 476C500 572 422 620 292 620H68L64 596L92 592C127 587 136 576 132 548L72 72C68 44 61 33 24 28L-4 24ZM288 588C353 588 400 563 400 480C400 365 325 296 228 296H196L231 581C255 588 278 588 288 588ZM262 684H282L392 756C413 770 426 782 426 800C426 814 413 824 398 824C383 824 371 817 350 792Z" glyph-name="Racute" horiz-adv-x="544" unicode="&#340;" /><glyph d="M-8 0H232L236 24L208 28C173 33 164 44 168 72L192 264H254L336 104C358 61 380 20 396 0H520L524 24C479 30 463 53 428 120L372 228C359 252 347 272 331 289C415 305 500 368 500 476C500 572 422 620 292 620H68L64 596L92 592C127 587 136 576 132 548L72 72C68 44 61 33 24 28L-4 24ZM288 588C353 588 400 563 400 480C400 365 325 296 228 296H196L231 581C255 588 278 588 288 588ZM294 684H306L430 816H414L310 752H306L214 816H198Z" glyph-name="Rcaron" horiz-adv-x="544" unicode="&#344;" /><glyph d="M-8 0H232L236 24L208 28C173 33 164 44 168 72L192 264H254L336 104C358 61 380 20 396 0H520L524 24C479 30 463 53 428 120L372 228C359 252 347 272 331 289C415 305 500 368 500 476C500 572 422 620 292 620H68L64 596L92 592C127 587 136 576 132 548L72 72C68 44 61 33 24 28L-4 24ZM288 588C353 588 400 563 400 480C400 365 325 296 228 296H196L231 581C255 588 278 588 288 588ZM214 -104C214 -122 226 -137 254 -140C250 -166 223 -212 198 -232H230C266 -203 306 -153 306 -96C306 -72 290 -52 262 -52C233 -52 214 -76 214 -104Z" glyph-name="Rcedilla" horiz-adv-x="544" /><glyph d="M-8 0H232L236 24L208 28C173 33 164 44 168 72L192 264H254L336 104C358 61 380 20 396 0H520L524 24C479 30 463 53 428 120L372 228C359 252 347 272 331 289C415 305 500 368 500 476C500 572 422 620 292 620H68L64 596L92 592C127 587 136 576 132 548L72 72C68 44 61 33 24 28L-4 24ZM288 588C353 588 400 563 400 480C400 365 325 296 228 296H196L231 581C255 588 278 588 288 588ZM214 -104C214 -122 226 -137 254 -140C250 -166 223 -212 198 -232H230C266 -203 306 -153 306 -96C306 -72 290 -52 262 -52C233 -52 214 -76 214 -104Z" glyph-name="Rcommaaccent" horiz-adv-x="544" unicode="&#342;" /><glyph d="M20 -12H40L60 12C88 0 128 -12 184 -12C322 -12 428 55 428 184C428 270 371 312 308 348L224 396C185 418 160 446 160 492C160 572 224 608 276 608C363 608 396 556 400 440H424L440 628H424L404 612C376 624 332 636 284 636C176 636 68 579 68 460C68 396 104 349 168 312L252 264C297 238 328 204 328 156C328 69 265 16 188 16C80 16 68 108 68 212H40C35 144 25 32 20 -12Z" glyph-name="S" horiz-adv-x="448" unicode="S" /><glyph d="M20 -12H40L60 12C88 0 128 -12 184 -12C322 -12 428 55 428 184C428 270 371 312 308 348L224 396C185 418 160 446 160 492C160 572 224 608 276 608C363 608 396 556 400 440H424L440 628H424L404 612C376 624 332 636 284 636C176 636 68 579 68 460C68 396 104 349 168 312L252 264C297 238 328 204 328 156C328 69 265 16 188 16C80 16 68 108 68 212H40C35 144 25 32 20 -12ZM246 684H266L376 756C397 770 410 782 410 800C410 814 397 824 382 824C367 824 355 817 334 792Z" glyph-name="Sacute" horiz-adv-x="448" unicode="&#346;" /><glyph d="M20 -12H40L60 12C88 0 128 -12 184 -12C322 -12 428 55 428 184C428 270 371 312 308 348L224 396C185 418 160 446 160 492C160 572 224 608 276 608C363 608 396 556 400 440H424L440 628H424L404 612C376 624 332 636 284 636C176 636 68 579 68 460C68 396 104 349 168 312L252 264C297 238 328 204 328 156C328 69 265 16 188 16C80 16 68 108 68 212H40C35 144 25 32 20 -12ZM278 684H290L414 816H398L294 752H290L198 816H182Z" glyph-name="Scaron" horiz-adv-x="448" unicode="&#352;" /><glyph d="M122 -64C174 -72 202 -84 202 -112C202 -143 179 -160 138 -160C114 -160 89 -152 74 -144V-164C89 -172 110 -180 142 -180C203 -180 258 -162 258 -104C258 -62 214 -39 166 -32L182 -12H184C322 -12 428 55 428 184C428 270 371 312 308 348L224 396C185 418 160 446 160 492C160 572 224 608 276 608C363 608 396 556 400 440H424L440 628H424L404 612C376 624 332 636 284 636C176 636 68 579 68 460C68 396 104 349 168 312L252 264C297 238 328 204 328 156C328 69 265 16 188 16C80 16 68 108 68 212H40C35 144 25 32 20 -12H40L60 12C85 1 119 -9 166 -11Z" glyph-name="Scedilla" horiz-adv-x="448" unicode="&#350;" /><glyph d="M20 -12H40L60 12C88 0 128 -12 184 -12C322 -12 428 55 428 184C428 270 371 312 308 348L224 396C185 418 160 446 160 492C160 572 224 608 276 608C363 608 396 556 400 440H424L440 628H424L404 612C376 624 332 636 284 636C176 636 68 579 68 460C68 396 104 349 168 312L252 264C297 238 328 204 328 156C328 69 265 16 188 16C80 16 68 108 68 212H40C35 144 25 32 20 -12ZM166 684H182L290 748H294L382 684H398L306 816H294Z" glyph-name="Scircumflex" horiz-adv-x="448" unicode="&#348;" /><glyph d="M20 -12H40L60 12C88 0 128 -12 184 -12C322 -12 428 55 428 184C428 270 371 312 308 348L224 396C185 418 160 446 160 492C160 572 224 608 276 608C363 608 396 556 400 440H424L440 628H424L404 612C376 624 332 636 284 636C176 636 68 579 68 460C68 396 104 349 168 312L252 264C297 238 328 204 328 156C328 69 265 16 188 16C80 16 68 108 68 212H40C35 144 25 32 20 -12ZM126 -100C126 -118 138 -133 166 -136C162 -162 135 -208 110 -228H142C178 -199 218 -149 218 -92C218 -68 202 -48 174 -48C145 -48 126 -72 126 -100Z" glyph-name="Scommaaccent" horiz-adv-x="448" unicode="&#536;" /><glyph d="M100 0H364L368 24L332 28C293 32 284 44 288 72L354 588H380C400 588 446 588 480 572C501 548 507 508 516 452H540L552 632C535 624 508 620 472 620H144C108 620 79 624 64 632L36 452H60C83 508 97 548 124 572C162 588 212 588 232 588H258L192 72C188 44 181 33 140 28L104 24Z" glyph-name="T" horiz-adv-x="524" unicode="T" /><glyph d="M128 312H223L192 72C188 44 181 33 140 28L104 24L100 0H364L368 24L332 28C293 32 284 44 288 72L319 312H420L424 344H323L354 588H380C400 588 446 588 480 572C501 548 507 508 516 452H540L552 632C535 624 508 620 472 620H144C108 620 79 624 64 632L36 452H60C83 508 97 548 124 572C162 588 212 588 232 588H258L227 344H132Z" glyph-name="Tbar" horiz-adv-x="524" unicode="&#358;" /><glyph d="M100 0H364L368 24L332 28C293 32 284 44 288 72L354 588H380C400 588 446 588 480 572C501 548 507 508 516 452H540L552 632C535 624 508 620 472 620H144C108 620 79 624 64 632L36 452H60C83 508 97 548 124 572C162 588 212 588 232 588H258L192 72C188 44 181 33 140 28L104 24ZM310 684H322L446 816H430L326 752H322L230 816H214Z" glyph-name="Tcaron" horiz-adv-x="524" unicode="&#356;" /><glyph d="M100 0H364L368 24L332 28C293 32 284 44 288 72L354 588H380C400 588 446 588 480 572C501 548 507 508 516 452H540L552 632C535 624 508 620 472 620H144C108 620 79 624 64 632L36 452H60C83 508 97 548 124 572C162 588 212 588 232 588H258L192 72C188 44 181 33 140 28L104 24ZM170 -104C170 -122 182 -137 210 -140C206 -166 179 -212 154 -232H186C222 -203 262 -153 262 -96C262 -72 246 -52 218 -52C189 -52 170 -76 170 -104Z" glyph-name="Tcommaaccent" horiz-adv-x="524" unicode="&#354;" /><glyph d="M-8 0H232L236 24L208 28C173 33 164 44 168 72L177 143C198 135 234 132 252 132C366 132 488 194 488 348C488 456 405 504 272 504H222L228 548C232 576 239 587 276 592L304 596L308 620H68L64 596L92 592C127 587 136 576 132 548L72 72C68 44 61 33 24 28L-4 24ZM268 472C340 472 388 436 388 348C388 234 323 164 200 164H179L217 466C238 472 258 472 268 472Z" glyph-name="Thorn" horiz-adv-x="488" unicode="&#222;" /><glyph d="M84 208C65 60 144 -12 280 -12C416 -12 508 64 528 220L568 536C571 564 579 580 616 588L652 596L656 620H440L436 596L480 588C522 581 523 563 520 536L480 220C468 120 415 48 308 48C207 48 168 104 180 204L224 548C227 576 236 587 272 592L300 596L304 620H64L60 596L88 592C127 587 131 575 128 548Z" glyph-name="U" horiz-adv-x="624" unicode="U" /><glyph d="M84 208C65 60 144 -12 280 -12C416 -12 508 64 528 220L568 536C571 564 579 580 616 588L652 596L656 620H440L436 596L480 588C522 581 523 563 520 536L480 220C468 120 415 48 308 48C207 48 168 104 180 204L224 548C227 576 236 587 272 592L300 596L304 620H64L60 596L88 592C127 587 131 575 128 548ZM342 684H362L472 756C493 770 506 782 506 800C506 814 493 824 478 824C463 824 451 817 430 792Z" glyph-name="Uacute" horiz-adv-x="624" unicode="&#218;" /><glyph d="M84 208C65 60 144 -12 280 -12C416 -12 508 64 528 220L568 536C571 564 579 580 616 588L652 596L656 620H440L436 596L480 588C522 581 523 563 520 536L480 220C468 120 415 48 308 48C207 48 168 104 180 204L224 548C227 576 236 587 272 592L300 596L304 620H64L60 596L88 592C127 587 131 575 128 548ZM378 684C450 684 487 732 494 788H482C478 756 442 724 382 724C322 724 294 756 298 788H286C279 732 306 684 378 684Z" glyph-name="Ubreve" horiz-adv-x="624" unicode="&#364;" /><glyph d="M84 208C65 60 144 -12 280 -12C416 -12 508 64 528 220L568 536C571 564 579 580 616 588L652 596L656 620H440L436 596L480 588C522 581 523 563 520 536L480 220C468 120 415 48 308 48C207 48 168 104 180 204L224 548C227 576 236 587 272 592L300 596L304 620H64L60 596L88 592C127 587 131 575 128 548ZM262 684H278L386 748H390L478 684H494L402 816H390Z" glyph-name="Ucircumflex" horiz-adv-x="624" unicode="&#219;" /><glyph d="M84 208C65 60 144 -12 280 -12C416 -12 508 64 528 220L568 536C571 564 579 580 616 588L652 596L656 620H440L436 596L480 588C522 581 523 563 520 536L480 220C468 120 415 48 308 48C207 48 168 104 180 204L224 548C227 576 236 587 272 592L300 596L304 620H64L60 596L88 592C127 587 131 575 128 548ZM454 684C480 684 506 703 506 736C506 759 488 772 466 772C440 772 414 753 414 720C414 697 432 684 454 684ZM302 684C328 684 354 703 354 736C354 759 336 772 314 772C288 772 262 753 262 720C262 697 280 684 302 684Z" glyph-name="Udieresis" horiz-adv-x="624" unicode="&#220;" /><glyph d="M84 208C65 60 144 -12 280 -12C416 -12 508 64 528 220L568 536C571 564 579 580 616 588L652 596L656 620H440L436 596L480 588C522 581 523 563 520 536L480 220C468 120 415 48 308 48C207 48 168 104 180 204L224 548C227 576 236 587 272 592L300 596L304 620H64L60 596L88 592C127 587 131 575 128 548ZM394 684H410L350 792C336 817 324 824 310 824C294 824 282 812 282 796C282 782 289 772 304 760Z" glyph-name="Ugrave" horiz-adv-x="624" unicode="&#217;" /><glyph d="M84 208C65 60 144 -12 280 -12C416 -12 508 64 528 220L568 536C571 564 579 580 616 588L652 596L656 620H440L436 596L480 588C522 581 523 563 520 536L480 220C468 120 415 48 308 48C207 48 168 104 180 204L224 548C227 576 236 587 272 592L300 596L304 620H64L60 596L88 592C127 587 131 575 128 548ZM426 684H442L562 748C585 760 594 775 594 789C594 806 581 812 568 812C554 812 543 806 518 780ZM282 684H298L418 748C441 760 450 775 450 789C450 806 437 812 424 812C410 812 399 806 374 780Z" glyph-name="Uhungarumlaut" horiz-adv-x="624" unicode="&#368;" /><glyph d="M84 208C65 60 144 -12 280 -12C416 -12 508 64 528 220L568 536C571 564 579 580 616 588L652 596L656 620H440L436 596L480 588C522 581 523 563 520 536L480 220C468 120 415 48 308 48C207 48 168 104 180 204L224 548C227 576 236 587 272 592L300 596L304 620H64L60 596L88 592C127 587 131 575 128 548ZM270 684H486L490 728H274Z" glyph-name="Umacron" horiz-adv-x="624" unicode="&#362;" /><glyph d="M194 -128C194 -166 237 -184 286 -184C314 -184 337 -176 350 -168V-148C337 -156 318 -160 302 -160C269 -160 250 -149 250 -120C250 -66 323 -31 370 0H366C454 27 512 100 528 220L568 536C571 564 579 580 616 588L652 596L656 620H440L436 596L480 588C522 581 523 563 520 536L480 220C468 120 415 48 308 48C207 48 168 104 180 204L224 548C227 576 236 587 272 592L300 596L304 620H64L60 596L88 592C127 587 131 575 128 548L84 208C65 60 144 -12 280 -12C296 -12 312 -11 328 -8C273 -30 194 -68 194 -128Z" glyph-name="Uogonek" horiz-adv-x="624" unicode="&#370;" /><glyph d="M84 208C65 60 144 -12 280 -12C416 -12 508 64 528 220L568 536C571 564 579 580 616 588L652 596L656 620H440L436 596L480 588C522 581 523 563 520 536L480 220C468 120 415 48 308 48C207 48 168 104 180 204L224 548C227 576 236 587 272 592L300 596L304 620H64L60 596L88 592C127 587 131 575 128 548ZM378 684C425 684 474 715 474 768C474 807 439 828 398 828C351 828 302 797 302 744C302 705 337 684 378 684ZM382 700C357 700 342 718 342 744C342 781 363 812 394 812C419 812 434 794 434 768C434 731 413 700 382 700Z" glyph-name="Uring" horiz-adv-x="624" unicode="&#366;" /><glyph d="M84 208C65 60 144 -12 280 -12C416 -12 508 64 528 220L568 536C571 564 579 580 616 588L652 596L656 620H440L436 596L480 588C522 581 523 563 520 536L480 220C468 120 415 48 308 48C207 48 168 104 180 204L224 548C227 576 236 587 272 592L300 596L304 620H64L60 596L88 592C127 587 131 575 128 548ZM266 688H282C285 716 302 740 326 740C366 740 382 684 430 684C474 684 498 728 502 788H486C483 760 466 736 442 736C402 736 386 792 338 792C294 792 270 748 266 688Z" glyph-name="Utilde" horiz-adv-x="624" unicode="&#360;" /><glyph d="M232 0H264L516 528C538 572 547 586 572 592L588 596L592 620H424L420 596L448 592C479 588 486 570 472 540L293 148L196 532C187 568 194 586 232 592L256 596L260 620H48L44 596L60 592C81 587 85 574 92 544Z" glyph-name="V" horiz-adv-x="548" unicode="V" /><glyph d="M232 0H268L450 361L540 0H572L824 528C846 572 855 586 880 592L896 596L900 620H732L728 596L756 592C787 588 794 570 780 540L604 155L508 532C499 568 506 586 544 592L568 596L572 620H360L356 596L372 592C393 587 397 574 404 544L436 417L298 146L200 532C191 568 198 586 236 592L260 596L264 620H48L44 596L60 592C81 587 85 574 92 544Z" glyph-name="W" horiz-adv-x="856" unicode="W" /><glyph d="M232 0H268L450 361L540 0H572L824 528C846 572 855 586 880 592L896 596L900 620H732L728 596L756 592C787 588 794 570 780 540L604 155L508 532C499 568 506 586 544 592L568 596L572 620H360L356 596L372 592C393 587 397 574 404 544L436 417L298 146L200 532C191 568 198 586 236 592L260 596L264 620H48L44 596L60 592C81 587 85 574 92 544ZM434 684H454L564 756C585 770 598 782 598 800C598 814 585 824 570 824C555 824 543 817 522 792Z" glyph-name="Wacute" horiz-adv-x="856" unicode="&#7810;" /><glyph d="M232 0H268L450 361L540 0H572L824 528C846 572 855 586 880 592L896 596L900 620H732L728 596L756 592C787 588 794 570 780 540L604 155L508 532C499 568 506 586 544 592L568 596L572 620H360L356 596L372 592C393 587 397 574 404 544L436 417L298 146L200 532C191 568 198 586 236 592L260 596L264 620H48L44 596L60 592C81 587 85 574 92 544ZM354 684H370L478 748H482L570 684H586L494 816H482Z" glyph-name="Wcircumflex" horiz-adv-x="856" unicode="&#372;" /><glyph d="M232 0H268L450 361L540 0H572L824 528C846 572 855 586 880 592L896 596L900 620H732L728 596L756 592C787 588 794 570 780 540L604 155L508 532C499 568 506 586 544 592L568 596L572 620H360L356 596L372 592C393 587 397 574 404 544L436 417L298 146L200 532C191 568 198 586 236 592L260 596L264 620H48L44 596L60 592C81 587 85 574 92 544ZM546 684C572 684 598 703 598 736C598 759 580 772 558 772C532 772 506 753 506 720C506 697 524 684 546 684ZM394 684C420 684 446 703 446 736C446 759 428 772 406 772C380 772 354 753 354 720C354 697 372 684 394 684Z" glyph-name="Wdieresis" horiz-adv-x="856" unicode="&#7812;" /><glyph d="M232 0H268L450 361L540 0H572L824 528C846 572 855 586 880 592L896 596L900 620H732L728 596L756 592C787 588 794 570 780 540L604 155L508 532C499 568 506 586 544 592L568 596L572 620H360L356 596L372 592C393 587 397 574 404 544L436 417L298 146L200 532C191 568 198 586 236 592L260 596L264 620H48L44 596L60 592C81 587 85 574 92 544ZM486 684H502L442 792C428 817 416 824 402 824C386 824 374 812 374 796C374 782 381 772 396 760Z" glyph-name="Wgrave" horiz-adv-x="856" unicode="&#7808;" /><glyph d="M296 0H532L536 24L524 28C502 35 489 46 480 64L341 330L520 556C531 569 543 582 564 588L592 596L596 620H412L408 596L432 592C473 585 472 572 452 544L322 366L232 540C217 569 219 583 244 588L284 596L288 620H56L52 596L68 592C90 587 99 574 108 556L246 286L64 64C53 51 37 37 16 32L-16 24L-20 0H172L176 24L156 28C115 36 111 48 132 76L265 249L352 80C367 51 369 37 344 32L300 24Z" glyph-name="X" horiz-adv-x="548" unicode="X" /><glyph d="M108 0H368L372 24L336 28C297 32 289 44 292 72L314 261L508 556C519 572 529 586 552 592L568 596L572 620H404L400 596L436 588C463 582 458 566 444 544L296 304L200 540C187 571 191 583 216 588L256 596L260 620H44L40 596L56 592C74 588 80 575 88 556L216 242L196 72C193 44 185 33 144 28L112 24Z" glyph-name="Y" horiz-adv-x="524" unicode="Y" /><glyph d="M108 0H368L372 24L336 28C297 32 289 44 292 72L314 261L508 556C519 572 529 586 552 592L568 596L572 620H404L400 596L436 588C463 582 458 566 444 544L296 304L200 540C187 571 191 583 216 588L256 596L260 620H44L40 596L56 592C74 588 80 575 88 556L216 242L196 72C193 44 185 33 144 28L112 24ZM298 684H318L428 756C449 770 462 782 462 800C462 814 449 824 434 824C419 824 407 817 386 792Z" glyph-name="Yacute" horiz-adv-x="524" unicode="&#221;" /><glyph d="M108 0H368L372 24L336 28C297 32 289 44 292 72L314 261L508 556C519 572 529 586 552 592L568 596L572 620H404L400 596L436 588C463 582 458 566 444 544L296 304L200 540C187 571 191 583 216 588L256 596L260 620H44L40 596L56 592C74 588 80 575 88 556L216 242L196 72C193 44 185 33 144 28L112 24ZM218 684H234L342 748H346L434 684H450L358 816H346Z" glyph-name="Ycircumflex" horiz-adv-x="524" unicode="&#374;" /><glyph d="M108 0H368L372 24L336 28C297 32 289 44 292 72L314 261L508 556C519 572 529 586 552 592L568 596L572 620H404L400 596L436 588C463 582 458 566 444 544L296 304L200 540C187 571 191 583 216 588L256 596L260 620H44L40 596L56 592C74 588 80 575 88 556L216 242L196 72C193 44 185 33 144 28L112 24ZM410 684C436 684 462 703 462 736C462 759 444 772 422 772C396 772 370 753 370 720C370 697 388 684 410 684ZM258 684C284 684 310 703 310 736C310 759 292 772 270 772C244 772 218 753 218 720C218 697 236 684 258 684Z" glyph-name="Ydieresis" horiz-adv-x="524" unicode="&#376;" /><glyph d="M108 0H368L372 24L336 28C297 32 289 44 292 72L314 261L508 556C519 572 529 586 552 592L568 596L572 620H404L400 596L436 588C463 582 458 566 444 544L296 304L200 540C187 571 191 583 216 588L256 596L260 620H44L40 596L56 592C74 588 80 575 88 556L216 242L196 72C193 44 185 33 144 28L112 24ZM350 684H366L306 792C292 817 280 824 266 824C250 824 238 812 238 796C238 782 245 772 260 760Z" glyph-name="Ygrave" horiz-adv-x="524" unicode="&#7922;" /><glyph d="M-8 0H408L464 188H440C416 132 380 76 348 52C316 36 268 36 244 36H113L508 608V620H172C136 620 107 624 92 632L60 452H84C108 512 124 544 148 568C180 584 236 584 256 584H383L-8 16Z" glyph-name="Z" horiz-adv-x="480" unicode="Z" /><glyph d="M-8 0H408L464 188H440C416 132 380 76 348 52C316 36 268 36 244 36H113L508 608V620H172C136 620 107 624 92 632L60 452H84C108 512 124 544 148 568C180 584 236 584 256 584H383L-8 16ZM274 684H294L404 756C425 770 438 782 438 800C438 814 425 824 410 824C395 824 383 817 362 792Z" glyph-name="Zacute" horiz-adv-x="480" unicode="&#377;" /><glyph d="M-8 0H408L464 188H440C416 132 380 76 348 52C316 36 268 36 244 36H113L508 608V620H172C136 620 107 624 92 632L60 452H84C108 512 124 544 148 568C180 584 236 584 256 584H383L-8 16ZM306 684H318L442 816H426L322 752H318L226 816H210Z" glyph-name="Zcaron" horiz-adv-x="480" unicode="&#381;" /><glyph d="M-8 0H408L464 188H440C416 132 380 76 348 52C316 36 268 36 244 36H113L508 608V620H172C136 620 107 624 92 632L60 452H84C108 512 124 544 148 568C180 584 236 584 256 584H383L-8 16ZM310 684C341 684 362 713 362 744C362 769 347 788 322 788C291 788 270 759 270 728C270 703 285 684 310 684Z" glyph-name="Zdotaccent" horiz-adv-x="480" unicode="&#379;" /><glyph d="M152 -12C216 -12 259 41 284 78V72C284 12 312 -12 360 -12C416 -12 452 20 464 32V48C448 40 428 32 404 32C380 32 371 44 371 72C371 88 374 116 376 128L412 396L424 472L354 457C339 464 317 472 288 472C144 472 32 344 32 160C32 44 84 -12 152 -12ZM284 92C260 70 222 52 188 52C148 52 124 84 124 172C124 332 200 436 304 436H330L288 124Z" glyph-name="a" horiz-adv-x="480" unicode="a" /><glyph d="M152 -12C216 -12 259 41 284 78V72C284 12 312 -12 360 -12C416 -12 452 20 464 32V48C448 40 428 32 404 32C380 32 371 44 371 72C371 88 374 116 376 128L412 396L424 472L354 457C339 464 317 472 288 472C144 472 32 344 32 160C32 44 84 -12 152 -12ZM284 92C260 70 222 52 188 52C148 52 124 84 124 172C124 332 200 436 304 436H330L288 124ZM246 536H266L376 608C397 622 410 634 410 652C410 666 397 676 382 676C367 676 355 669 334 644Z" glyph-name="aacute" horiz-adv-x="480" unicode="&#225;" /><glyph d="M152 -12C216 -12 259 41 284 78V72C284 12 312 -12 360 -12C416 -12 452 20 464 32V48C448 40 428 32 404 32C380 32 371 44 371 72C371 88 374 116 376 128L412 396L424 472L354 457C339 464 317 472 288 472C144 472 32 344 32 160C32 44 84 -12 152 -12ZM284 92C260 70 222 52 188 52C148 52 124 84 124 172C124 332 200 436 304 436H330L288 124ZM282 536C354 536 391 584 398 640H386C382 608 346 576 286 576C226 576 198 608 202 640H190C183 584 210 536 282 536Z" glyph-name="abreve" horiz-adv-x="480" unicode="&#259;" /><glyph d="M152 -12C216 -12 259 41 284 78V72C284 12 312 -12 360 -12C416 -12 452 20 464 32V48C448 40 428 32 404 32C380 32 371 44 371 72C371 88 374 116 376 128L412 396L424 472L354 457C339 464 317 472 288 472C144 472 32 344 32 160C32 44 84 -12 152 -12ZM284 92C260 70 222 52 188 52C148 52 124 84 124 172C124 332 200 436 304 436H330L288 124ZM166 536H182L290 600H294L382 536H398L306 668H294Z" glyph-name="acircumflex" horiz-adv-x="480" unicode="&#226;" /><glyph d="M240 536H260L370 608C391 622 404 634 404 652C404 666 391 676 376 676C361 676 349 669 328 644Z" glyph-name="acute" horiz-adv-x="476" unicode="&#180;" /><glyph d="M152 -12C216 -12 259 41 284 78V72C284 12 312 -12 360 -12C416 -12 452 20 464 32V48C448 40 428 32 404 32C380 32 371 44 371 72C371 88 374 116 376 128L412 396L424 472L354 457C339 464 317 472 288 472C144 472 32 344 32 160C32 44 84 -12 152 -12ZM284 92C260 70 222 52 188 52C148 52 124 84 124 172C124 332 200 436 304 436H330L288 124ZM358 536C384 536 410 555 410 588C410 611 392 624 370 624C344 624 318 605 318 572C318 549 336 536 358 536ZM206 536C232 536 258 555 258 588C258 611 240 624 218 624C192 624 166 605 166 572C166 549 184 536 206 536Z" glyph-name="adieresis" horiz-adv-x="480" unicode="&#228;" /><glyph d="M32 160C32 44 84 -12 168 -12C232 -12 287 48 312 89C334 19 385 -12 448 -12C536 -12 588 44 612 112C576 72 532 48 486 48C424 48 392 88 392 204C392 221 393 237 394 253C413 245 448 236 480 236C576 236 648 288 648 376C648 436 612 472 528 472C482 472 439 456 404 427L416 472L353 457C338 464 317 472 288 472C144 472 32 344 32 160ZM300 176C300 147 303 122 308 100C279 75 233 52 200 52C148 52 124 84 124 172C124 332 200 436 304 436H330L305 240C302 219 300 198 300 176ZM524 444C556 444 572 428 572 386C572 320 528 268 444 268H396C413 380 473 444 524 444Z" glyph-name="ae" horiz-adv-x="656" unicode="&#230;" /><glyph d="M32 160C32 44 84 -12 168 -12C232 -12 287 48 312 89C334 19 385 -12 448 -12C536 -12 588 44 612 112C576 72 532 48 486 48C424 48 392 88 392 204C392 221 393 237 394 253C413 245 448 236 480 236C576 236 648 288 648 376C648 436 612 472 528 472C482 472 439 456 404 427L416 472L353 457C338 464 317 472 288 472C144 472 32 344 32 160ZM300 176C300 147 303 122 308 100C279 75 233 52 200 52C148 52 124 84 124 172C124 332 200 436 304 436H330L305 240C302 219 300 198 300 176ZM524 444C556 444 572 428 572 386C572 320 528 268 444 268H396C413 380 473 444 524 444ZM350 536H370L480 608C501 622 514 634 514 652C514 666 501 676 486 676C471 676 459 669 438 644Z" glyph-name="aeacute" horiz-adv-x="656" unicode="&#509;" /><glyph d="M152 -12C216 -12 259 41 284 78V72C284 12 312 -12 360 -12C416 -12 452 20 464 32V48C448 40 428 32 404 32C380 32 371 44 371 72C371 88 374 116 376 128L412 396L424 472L354 457C339 464 317 472 288 472C144 472 32 344 32 160C32 44 84 -12 152 -12ZM284 92C260 70 222 52 188 52C148 52 124 84 124 172C124 332 200 436 304 436H330L288 124ZM298 536H314L254 644C240 669 228 676 214 676C198 676 186 664 186 648C186 634 193 624 208 612Z" glyph-name="agrave" horiz-adv-x="480" unicode="&#224;" /><glyph d="M152 -12C216 -12 259 41 284 78V72C284 12 312 -12 360 -12C416 -12 452 20 464 32V48C448 40 428 32 404 32C380 32 371 44 371 72C371 88 374 116 376 128L412 396L424 472L354 457C339 464 317 472 288 472C144 472 32 344 32 160C32 44 84 -12 152 -12ZM284 92C260 70 222 52 188 52C148 52 124 84 124 172C124 332 200 436 304 436H330L288 124ZM174 536H390L394 580H178Z" glyph-name="amacron" horiz-adv-x="480" unicode="&#257;" /><glyph d="M24 148C24 52 92 -12 204 -12C271 -12 322 17 363 58C405 17 452 -12 508 -12C584 -12 632 52 640 148H624C616 96 592 56 540 56C496 56 454 88 418 128C451 178 476 233 500 276C516 264 534 260 548 260C574 260 596 281 596 316C596 348 580 368 548 368C500 368 472 302 440 228L404 144C370 185 342 230 324 257C303 288 281 323 263 360C373 388 448 438 448 524C448 584 408 636 312 636C220 636 140 584 140 476C140 435 158 382 181 332C89 295 24 234 24 148ZM252 204C281 160 313 112 349 73C324 51 291 36 244 36C160 36 116 92 116 176C116 234 142 287 187 319C210 271 236 227 252 204ZM224 512C224 580 260 612 308 612C352 612 372 573 372 528C372 465 330 407 257 374C237 418 224 465 224 512Z" glyph-name="ampersand" horiz-adv-x="656" unicode="&amp;" /><glyph d="M242 -128C242 -166 285 -184 334 -184C362 -184 385 -176 398 -168V-148C385 -156 366 -160 350 -160C317 -160 298 -149 298 -120C298 -66 371 -31 418 0H417C441 10 457 25 464 32V48C448 40 428 32 404 32C380 32 371 44 371 72C371 88 374 116 376 128L412 396L424 472L354 457C339 464 317 472 288 472C144 472 32 344 32 160C32 44 84 -12 152 -12C216 -12 259 41 284 78V72C284 12 312 -12 360 -12H368C314 -34 242 -71 242 -128ZM284 92C260 70 222 52 188 52C148 52 124 84 124 172C124 332 200 436 304 436H330L288 124Z" glyph-name="aogonek" horiz-adv-x="480" unicode="&#261;" /><glyph d="M115 445H140C140 471 163 505 202 505C231 505 270 484 293 472C312 462 370 436 401 436C462 436 498 485 498 558H475C475 532 449 496 412 496C382 496 349 511 328 522C301 536 263 563 218 563C149 563 115 486 115 445ZM115 249H140C140 275 163 309 202 309C231 309 270 288 293 276C312 266 370 240 401 240C462 240 498 289 498 362H475C475 336 449 300 412 300C382 300 349 315 328 326C301 340 263 367 218 367C149 367 115 290 115 249Z" glyph-name="approxequal" horiz-adv-x="609" unicode="&#8776;" /><glyph d="M152 -12C216 -12 259 41 284 78V72C284 12 312 -12 360 -12C416 -12 452 20 464 32V48C448 40 428 32 404 32C380 32 371 44 371 72C371 88 374 116 376 128L412 396L424 472L354 457C339 464 317 472 288 472C144 472 32 344 32 160C32 44 84 -12 152 -12ZM284 92C260 70 222 52 188 52C148 52 124 84 124 172C124 332 200 436 304 436H330L288 124ZM282 536C329 536 378 567 378 620C378 659 343 680 302 680C255 680 206 649 206 596C206 557 241 536 282 536ZM286 552C261 552 246 570 246 596C246 633 267 664 298 664C323 664 338 646 338 620C338 583 317 552 286 552Z" glyph-name="aring" horiz-adv-x="480" unicode="&#229;" /><glyph d="M72 504H103L243 626H245L385 504H416L255 709H233Z" glyph-name="asciicircum" horiz-adv-x="488" unicode="^" /><glyph d="M145 534H170C170 560 183 594 222 594C251 594 271 575 293 561C312 549 350 525 381 525C442 525 468 574 468 647H445C445 621 429 585 392 585C362 585 346 599 328 611C303 628 283 652 238 652C169 652 145 575 145 534Z" glyph-name="asciitilde" horiz-adv-x="609" unicode="~" /><glyph d="M90 360 180 412 231 332 244 340 251 436 349 448 355 464 272 504 324 600 313 608 226 556 176 632 159 628 155 532 53 516 48 504 130 456 83 368Z" glyph-name="asterisk" horiz-adv-x="368" unicode="*" /><glyph d="M236 160C236 44 288 -12 356 -12C420 -12 464 42 488 78V60C489 12 512 -40 588 -40C753 -40 856 124 856 288C856 534 689 636 492 636C264 636 36 458 36 180C36 -19 159 -184 392 -184C466 -184 544 -160 600 -124L592 -104C546 -129 472 -148 396 -148C203 -148 100 -5 100 176C100 405 250 596 488 596C681 596 796 489 796 288C796 133 714 -4 624 -4C589 -4 576 28 576 72C576 88 578 116 580 128L616 396L628 472L558 457C543 464 521 472 492 472C348 472 236 344 236 160ZM489 93C465 70 426 52 392 52C352 52 328 84 328 172C328 332 404 436 508 436H534L492 124C491 117 489 105 489 93Z" glyph-name="at" horiz-adv-x="884" unicode="@" /><glyph d="M152 -12C216 -12 259 41 284 78V72C284 12 312 -12 360 -12C416 -12 452 20 464 32V48C448 40 428 32 404 32C380 32 371 44 371 72C371 88 374 116 376 128L412 396L424 472L354 457C339 464 317 472 288 472C144 472 32 344 32 160C32 44 84 -12 152 -12ZM284 92C260 70 222 52 188 52C148 52 124 84 124 172C124 332 200 436 304 436H330L288 124ZM170 540H186C189 568 206 592 230 592C270 592 286 536 334 536C378 536 402 580 406 640H390C387 612 370 588 346 588C306 588 290 644 242 644C198 644 174 600 170 540Z" glyph-name="atilde" horiz-adv-x="480" unicode="&#227;" /><glyph d="M48 -12 123 1C141 -5 165 -12 192 -12C336 -12 440 112 440 308C440 424 384 472 320 472C260 472 215 420 189 384L232 708H228C208 700 186 695 160 692L76 680V660L108 652C132 646 135 636 132 616L60 60ZM280 408C320 408 348 384 348 296C348 128 280 24 176 24H143L187 367C212 390 249 408 280 408Z" glyph-name="b" horiz-adv-x="472" unicode="b" /><glyph d="M241 -76 131 620H91L201 -76Z" glyph-name="backslash" horiz-adv-x="312" unicode="\" /><glyph d="M72 -272H116L239 728H195Z" glyph-name="bar" horiz-adv-x="286" unicode="|" /><glyph d="M168 -72C154 -183 202 -248 348 -248V-224C273 -224 228 -189 240 -92L264 104C275 195 253 240 168 252C256 262 296 332 304 408L320 556C330 652 381 684 456 684V708C309 708 259 643 244 532L224 388C210 290 145 256 64 256V244C145 244 203 212 192 124Z" glyph-name="braceleft" horiz-adv-x="440" unicode="{" /><glyph d="M172 92C158 -19 206 -84 352 -84V-60C277 -60 232 -25 244 72L260 168C271 259 249 304 164 316C252 326 288 396 296 472L308 556C318 652 369 684 444 684V708C297 708 246 643 231 532L219 452C205 354 141 320 60 320V308C141 308 199 276 188 188Z" glyph-name="braceleft.cap" horiz-adv-x="448" /><glyph d="M124 -92C112 -189 59 -224 -16 -224V-248C130 -248 190 -183 204 -72L228 124C239 212 307 244 388 244V256C306 256 246 290 260 388L280 532C295 643 251 708 104 708V684C179 684 214 652 204 556L188 408C180 332 199 261 284 252C197 239 159 195 148 104Z" glyph-name="braceright" horiz-adv-x="440" unicode="}" /><glyph d="M20 -60V-84C167 -84 218 -19 233 92L245 172C259 270 323 304 404 304V316C323 316 265 348 276 436L292 532C306 643 258 708 112 708V684C187 684 232 649 220 552L204 456C193 365 215 320 300 308C212 298 176 228 168 152L156 68C146 -28 95 -60 20 -60Z" glyph-name="braceright.cap" horiz-adv-x="448" /><glyph d="M28 -144H208L216 -88L100 -108L192 644L300 628L308 680H132Z" glyph-name="bracketleft" horiz-adv-x="276" unicode="[" /><glyph d="M40 -84H220L228 -28L112 -48L200 664L308 648L312 700H136Z" glyph-name="bracketleft.cap" horiz-adv-x="284" /><glyph d="M-24 -92 -32 -144H144L248 680H68L60 624L176 644L84 -108Z" glyph-name="bracketright" horiz-adv-x="276" unicode="]" /><glyph d="M-8 -32 -12 -84H164L260 700H80L72 644L188 664L100 -48Z" glyph-name="bracketright.cap" horiz-adv-x="284" /><glyph d="M276 536C348 536 385 584 392 640H380C376 608 340 576 280 576C220 576 192 608 196 640H184C177 584 204 536 276 536Z" glyph-name="breve" horiz-adv-x="476" unicode="&#728;" /><glyph d="M152 376H196L239 728H195ZM120 120 72 -272H116L164 120Z" glyph-name="brokenbar" horiz-adv-x="286" unicode="&#166;" /><glyph d="M168 136C232 136 284 188 284 252C284 317 232 368 168 368C103 368 52 317 52 252C52 188 103 136 168 136Z" glyph-name="bullet" horiz-adv-x="336" unicode="&#8226;" /><glyph d="M184 200C248 200 300 252 300 316C300 381 248 432 184 432C119 432 68 381 68 316C68 252 119 200 184 200Z" glyph-name="bullet.cap" horiz-adv-x="337" /><glyph d="M32 176C32 44 96 -12 180 -12C268 -12 320 44 344 112C308 72 264 48 218 48C156 48 124 88 124 204C124 356 196 444 256 444C268 444 273 441 280 438C284 372 308 344 340 344C364 344 380 360 380 388C380 432 340 472 260 472C132 472 32 348 32 176Z" glyph-name="c" horiz-adv-x="380" unicode="c" /><glyph d="M32 176C32 44 96 -12 180 -12C268 -12 320 44 344 112C308 72 264 48 218 48C156 48 124 88 124 204C124 356 196 444 256 444C268 444 273 441 280 438C284 372 308 344 340 344C364 344 380 360 380 388C380 432 340 472 260 472C132 472 32 348 32 176ZM226 536H246L356 608C377 622 390 634 390 652C390 666 377 676 362 676C347 676 335 669 314 644Z" glyph-name="cacute" horiz-adv-x="380" unicode="&#263;" /><glyph d="M272 536H284L408 668H392L288 604H284L192 668H176Z" glyph-name="caron" horiz-adv-x="476" unicode="&#711;" /><glyph d="M280 528C309 528 328 552 328 580C328 598 316 613 288 616C292 642 319 688 344 708H312C276 679 236 629 236 572C236 548 252 528 280 528Z" glyph-name="caronquoteleft" horiz-adv-x="476" /><glyph d="M240 528H272C308 557 348 607 348 664C348 688 332 708 304 708C275 708 256 684 256 656C256 638 268 623 296 620C292 594 265 548 240 528Z" glyph-name="caronquoteright" horiz-adv-x="476" /><glyph d="M32 176C32 44 96 -12 180 -12C268 -12 320 44 344 112C308 72 264 48 218 48C156 48 124 88 124 204C124 356 196 444 256 444C268 444 273 441 280 438C284 372 308 344 340 344C364 344 380 360 380 388C380 432 340 472 260 472C132 472 32 348 32 176ZM258 536H270L394 668H378L274 604H270L178 668H162Z" glyph-name="ccaron" horiz-adv-x="380" unicode="&#269;" /><glyph d="M118 -68C170 -76 198 -88 198 -116C198 -147 175 -164 134 -164C110 -164 85 -156 70 -148V-168C85 -176 106 -184 138 -184C199 -184 254 -166 254 -108C254 -66 210 -43 162 -36L181 -12C268 -11 320 44 344 112C308 72 264 48 218 48C156 48 124 88 124 204C124 356 196 444 256 444C268 444 273 441 280 438C284 372 308 344 340 344C364 344 380 360 380 388C380 432 340 472 260 472C132 472 32 348 32 176C32 51 88 -5 165 -11Z" glyph-name="ccedilla" horiz-adv-x="380" unicode="&#231;" /><glyph d="M32 176C32 44 96 -12 180 -12C268 -12 320 44 344 112C308 72 264 48 218 48C156 48 124 88 124 204C124 356 196 444 256 444C268 444 273 441 280 438C284 372 308 344 340 344C364 344 380 360 380 388C380 432 340 472 260 472C132 472 32 348 32 176ZM146 536H162L270 600H274L362 536H378L286 668H274Z" glyph-name="ccircumflex" horiz-adv-x="380" unicode="&#265;" /><glyph d="M32 176C32 44 96 -12 180 -12C268 -12 320 44 344 112C308 72 264 48 218 48C156 48 124 88 124 204C124 356 196 444 256 444C268 444 273 441 280 438C284 372 308 344 340 344C364 344 380 360 380 388C380 432 340 472 260 472C132 472 32 348 32 176ZM262 536C293 536 314 565 314 596C314 621 299 640 274 640C243 640 222 611 222 580C222 555 237 536 262 536Z" glyph-name="cdotaccent" horiz-adv-x="380" unicode="&#267;" /><glyph d="M148 -68C200 -76 228 -88 228 -116C228 -147 205 -164 164 -164C140 -164 115 -156 100 -148V-168C115 -176 136 -184 168 -184C229 -184 284 -166 284 -108C284 -66 240 -43 192 -36L228 8H212Z" glyph-name="cedilla" horiz-adv-x="476" unicode="&#184;" /><glyph d="M60 200C60 92 120 17 210 -5L184 -92H216L240 -10C249 -11 258 -12 268 -12C372 -12 428 48 456 116C428 84 364 52 312 52C293 52 276 54 260 59L374 441L388 436C383 394 392 336 444 336C473 336 496 356 496 392C496 432 448 465 384 476L408 556H376L353 479C349 479 344 480 340 480C204 480 60 383 60 200ZM160 220C160 372 248 448 328 448C333 448 339 448 344 447L232 70C187 95 160 146 160 220Z" glyph-name="cent" horiz-adv-x="528" unicode="&#162;" /><glyph d="M40 200C40 92 100 17 190 -5L164 -92H196L220 -10C229 -11 238 -12 248 -12C352 -12 408 48 436 116C408 84 344 52 292 52C273 52 256 54 240 59L354 441L368 436C363 394 372 336 424 336C453 336 476 356 476 392C476 432 428 465 364 476L388 556H356L333 479C329 479 324 480 320 480C184 480 40 383 40 200ZM140 220C140 372 228 448 308 448C313 448 319 448 324 447L212 70C167 95 140 146 140 220Z" glyph-name="cent.PPF" horiz-adv-x="488" /><glyph d="M20 105C20 47 58 7 112 -3L100 -45H121L132 -6H141C198 -6 236 25 251 61V66C236 51 203 40 174 40C164 40 154 41 146 43L196 218C199 217 202 216 204 216C204 189 215 160 241 160C259 160 272 172 272 193C272 219 240 236 203 242L214 281H193L182 244H181C96 244 20 194 20 105ZM91 115C91 183 132 219 175 220L127 50C104 61 91 83 91 115Z" glyph-name="cent.denominator" horiz-adv-x="304" /><glyph d="M181 302C238 302 276 333 291 369V374C276 359 243 348 214 348C204 348 194 349 186 351L236 526C239 525 242 524 244 524C244 497 255 468 281 468C299 468 312 480 312 501C312 527 280 544 243 550L254 589H233L222 552H221C136 552 60 502 60 413C60 355 98 315 152 305L140 263H161L172 302ZM131 423C131 491 172 527 215 528L167 358C144 369 131 391 131 423Z" glyph-name="cent.numerator" horiz-adv-x="304" /><glyph d="M160 536H176L284 600H288L376 536H392L300 668H288Z" glyph-name="circumflex" horiz-adv-x="476" unicode="&#710;" /><glyph d="M92 264C126 264 152 292 152 328C152 356 133 376 104 376C70 376 44 348 44 312C44 284 62 264 92 264ZM12 36C12 8 30 -12 60 -12C94 -12 120 16 120 52C120 80 101 100 72 100C38 100 12 72 12 36Z" glyph-name="colon" horiz-adv-x="180" unicode=":" /><glyph d="M12 36C12 8 32 -12 60 -12C56 -44 20 -100 -12 -124H28C72 -88 120 -28 120 44C120 76 104 100 72 100C40 100 12 76 12 36Z" glyph-name="comma" horiz-adv-x="180" unicode="," /><glyph d="M152 -104C152 -122 164 -137 192 -140C188 -166 161 -212 136 -232H168C204 -203 244 -153 244 -96C244 -72 228 -52 200 -52C171 -52 152 -76 152 -104Z" glyph-name="commaaccent" horiz-adv-x="476" unicode="&#63171;" /><glyph d="M28 312C28 124 175 -12 356 -12C537 -12 684 124 684 312C684 500 537 636 356 636C175 636 28 500 28 312ZM80 312C80 468 195 596 356 596C517 596 632 468 632 312C632 156 517 28 356 28C195 28 80 156 80 312ZM160 312C160 218 230 132 368 132C421 132 463 142 488 152L508 256H488C480 232 462 188 448 176C431 166 408 156 372 156C296 156 248 220 248 316C248 397 275 468 380 468C424 468 440 457 456 444C469 429 486 384 492 360H512L504 488H488L472 476C441 488 419 492 380 492C254 492 160 417 160 312Z" glyph-name="copyright" horiz-adv-x="712" unicode="&#169;" /><glyph d="M100 128 147 181C174 160 209 148 248 148C291 148 329 160 361 180L396 128L452 176L404 217C434 252 452 297 452 344C452 376 444 405 429 429L488 472L444 520L396 466C369 488 333 500 292 500C251 500 213 488 182 468L148 520L92 472L139 431C109 396 92 351 92 304C92 271 100 242 115 218L56 176ZM256 192C195 192 144 234 144 304C144 389 204 456 288 456C349 456 400 414 400 344C400 259 340 192 256 192Z" glyph-name="currency" horiz-adv-x="528" unicode="&#164;" /><glyph d="M68 128 120 180C146 159 181 148 220 148C259 148 299 160 334 181L364 128L424 176L379 217C416 253 440 303 440 360C440 387 433 411 421 432L480 472L440 520L390 467C364 488 328 500 288 500C249 500 210 488 176 468L144 520L88 472L129 430C94 394 72 345 72 288C72 261 78 237 89 217L32 176ZM228 192C169 192 124 231 124 296C124 395 207 456 280 456C339 456 388 417 388 352C388 254 300 192 228 192Z" glyph-name="currency.PPF" horiz-adv-x="488" /><glyph d="M152 -12C216 -12 259 41 284 78V72C284 12 312 -12 360 -12C416 -12 452 20 464 32V48C448 40 428 32 404 32C380 32 372 44 372 72C372 88 374 116 376 128L452 708H448C428 700 406 695 380 692L288 680V660L328 652C352 646 355 636 352 616L332 465C320 469 305 472 288 472C144 472 32 344 32 160C32 44 84 -12 152 -12ZM284 92C260 70 222 52 188 52C148 52 124 84 124 172C124 332 200 436 304 436H328L288 124Z" glyph-name="d" horiz-adv-x="480" unicode="d" /><glyph d="M40 432H175L96 -212H152L231 432H376L381 480H237L257 636H201L181 480H45Z" glyph-name="dagger" horiz-adv-x="408" unicode="&#8224;" /><glyph d="M44 432H180L126 0H-8L-13 -48H120L100 -212H156L176 -48H323L328 0H182L236 432H380L385 480H242L261 636H205L186 480H49Z" glyph-name="daggerdbl" horiz-adv-x="408" unicode="&#8225;" /><glyph d="M152 -12C216 -12 259 41 284 78V72C284 12 312 -12 360 -12C416 -12 452 20 464 32V48C448 40 428 32 404 32C380 32 372 44 372 72C372 88 374 116 376 128L452 708H448C428 700 406 695 380 692L288 680V660L328 652C352 646 355 636 352 616L332 465C320 469 305 472 288 472C144 472 32 344 32 160C32 44 84 -12 152 -12ZM284 92C260 70 222 52 188 52C148 52 124 84 124 172C124 332 200 436 304 436H328L288 124ZM464 528H496C532 557 572 607 572 664C572 688 556 708 528 708C499 708 480 684 480 656C480 638 492 623 520 620C516 594 489 548 464 528Z" glyph-name="dcaron" horiz-adv-x="480" unicode="&#271;" /><glyph d="M216 556H344L332 465C320 469 305 472 288 472C144 472 32 344 32 160C32 44 84 -12 152 -12C216 -12 259 41 284 78V72C284 12 312 -12 360 -12C416 -12 452 20 464 32V48C448 40 428 32 404 32C380 32 372 44 372 72C372 88 374 116 376 128L432 556H520L524 584H435L452 708H448C428 700 406 695 380 692L288 680V660L328 652C352 646 355 636 352 616L347 584H220ZM284 92C260 70 222 52 188 52C148 52 124 84 124 172C124 332 200 436 304 436H328L288 124Z" glyph-name="dcroat" horiz-adv-x="480" unicode="&#273;" /><glyph d="M208 332C308 332 376 408 376 504C376 581 321 636 244 636C144 636 76 560 76 464C76 387 131 332 208 332ZM212 372C158 372 128 416 128 464C128 540 174 596 240 596C294 596 324 552 324 504C324 428 278 372 212 372Z" glyph-name="degree" horiz-adv-x="400" unicode="&#176;" /><glyph d="M352 536C378 536 404 555 404 588C404 611 386 624 364 624C338 624 312 605 312 572C312 549 330 536 352 536ZM200 536C226 536 252 555 252 588C252 611 234 624 212 624C186 624 160 605 160 572C160 549 178 536 200 536Z" glyph-name="dieresis" horiz-adv-x="476" unicode="&#168;" /><glyph d="M272 440C300 440 328 460 328 496C328 532 300 552 272 552C244 552 216 532 216 496C216 460 244 440 272 440ZM44 288H500V332H44ZM216 124C216 88 244 68 272 68C300 68 328 88 328 124C328 160 300 180 272 180C244 180 216 160 216 124Z" glyph-name="divide" horiz-adv-x="540" unicode="&#247;" /><glyph d="M48 -12H68L88 12C112 1 144 -9 189 -11L172 -92H200L217 -12C352 -10 456 56 456 184C456 270 399 312 336 348L304 366L351 601C403 583 425 532 428 440H452L468 628H452L432 612C413 620 387 628 357 632L372 708H344L329 635C324 636 318 636 312 636C204 636 96 579 96 460C96 396 131 349 196 312L250 281L195 17C158 22 135 39 121 65C100 102 96 155 96 212H68C63 144 53 32 48 -12ZM280 264C325 238 356 204 356 156C356 71 296 19 223 16L276 266ZM188 492C188 572 252 608 304 608C311 608 317 607 323 607L278 381L252 396C213 418 188 446 188 492Z" glyph-name="dollar" horiz-adv-x="528" unicode="$" /><glyph d="M40 -12H60L80 12C103 2 135 -8 178 -11L161 -92H189L206 -12C343 -11 448 55 448 184C448 270 391 312 328 348L295 366L342 601C395 584 417 532 420 440H444L460 628H444L424 612C405 620 379 628 349 632L364 708H336L321 635C316 636 310 636 304 636C196 636 88 579 88 460C88 396 124 349 188 312L240 282L184 17C151 22 128 38 114 62C91 99 88 153 88 212H60C55 144 45 32 40 -12ZM272 264C317 238 348 204 348 156C348 70 287 18 212 16L266 267ZM180 492C180 572 244 608 296 608C303 608 309 607 315 607L270 381L244 396C205 418 180 446 180 492Z" glyph-name="dollar.PPF" horiz-adv-x="496" /><glyph d="M9 -6H19L33 9C49 1 71 -5 97 -6L89 -45H107L115 -6C197 -4 256 32 256 96C256 138 231 159 193 179L167 193L187 296C225 290 239 264 241 216H255L264 316H256C253 315 246 309 243 308C231 312 212 317 192 319L199 356H181L173 320H172C99 320 39 288 39 227C39 194 56 169 92 150L126 133L102 18C80 19 63 26 53 38C43 56 39 83 39 114H23C22 105 12 7 9 -6ZM183 77C183 45 158 22 120 18L143 124C167 111 183 97 183 77ZM150 201 142 206C120 217 106 229 106 249C106 282 139 298 169 298C163 265 156 229 150 201Z" glyph-name="dollar.denominator" horiz-adv-x="304" /><glyph d="M49 302H59L73 317C89 309 111 303 137 302L129 263H147L155 302C237 304 296 340 296 404C296 446 271 467 233 487L207 501L227 604C265 598 279 572 281 524H295L304 624H296C293 623 286 617 283 616C271 620 252 625 232 627L239 664H221L213 628H212C139 628 79 596 79 535C79 502 96 477 132 458L166 441L142 326C120 327 103 334 93 346C83 364 79 391 79 422H63C62 413 52 315 49 302ZM223 385C223 353 198 330 160 326L183 432C207 419 223 404 223 385ZM190 509 182 514C160 525 146 537 146 557C146 590 179 606 209 606C203 573 196 537 190 509Z" glyph-name="dollar.numerator" horiz-adv-x="304" /><glyph d="M276 536C307 536 328 565 328 596C328 621 313 640 288 640C257 640 236 611 236 580C236 555 251 536 276 536Z" glyph-name="dotaccent" horiz-adv-x="476" unicode="&#729;" /><glyph d="M64 72C64 12 92 -12 140 -12C196 -12 232 20 244 32V48C228 40 208 32 184 32C160 32 151 44 151 72C151 88 154 116 156 128L188 380C197 448 176 468 136 468C96 468 56 456 32 448V432L68 424C96 418 104 410 100 380L68 124C66 110 64 84 64 72Z" glyph-name="dotlessi" horiz-adv-x="260" unicode="&#305;" /><glyph d="M52 0C39 -105 8 -196 -100 -220V-240C36 -240 118 -172 140 0L188 380C197 448 176 468 136 468C96 468 56 456 32 448V432L68 424C96 418 104 410 100 380Z" glyph-name="dotlessj" horiz-adv-x="252" unicode="&#63166;" /><glyph d="M32 176C32 44 96 -12 180 -12C268 -12 320 44 344 112C308 72 264 48 218 48C156 48 124 88 124 204C124 221 125 237 126 253C145 245 180 236 212 236C308 236 380 288 380 376C380 436 344 472 260 472C132 472 32 348 32 176ZM256 444C288 444 304 428 304 386C304 320 260 268 176 268H128C145 380 205 444 256 444Z" glyph-name="e" horiz-adv-x="388" unicode="e" /><glyph d="M32 176C32 44 96 -12 180 -12C268 -12 320 44 344 112C308 72 264 48 218 48C156 48 124 88 124 204C124 221 125 237 126 253C145 245 180 236 212 236C308 236 380 288 380 376C380 436 344 472 260 472C132 472 32 348 32 176ZM256 444C288 444 304 428 304 386C304 320 260 268 176 268H128C145 380 205 444 256 444ZM230 536H250L360 608C381 622 394 634 394 652C394 666 381 676 366 676C351 676 339 669 318 644Z" glyph-name="eacute" horiz-adv-x="388" unicode="&#233;" /><glyph d="M32 176C32 44 96 -12 180 -12C268 -12 320 44 344 112C308 72 264 48 218 48C156 48 124 88 124 204C124 221 125 237 126 253C145 245 180 236 212 236C308 236 380 288 380 376C380 436 344 472 260 472C132 472 32 348 32 176ZM256 444C288 444 304 428 304 386C304 320 260 268 176 268H128C145 380 205 444 256 444ZM266 536C338 536 375 584 382 640H370C366 608 330 576 270 576C210 576 182 608 186 640H174C167 584 194 536 266 536Z" glyph-name="ebreve" horiz-adv-x="388" unicode="&#277;" /><glyph d="M32 176C32 44 96 -12 180 -12C268 -12 320 44 344 112C308 72 264 48 218 48C156 48 124 88 124 204C124 221 125 237 126 253C145 245 180 236 212 236C308 236 380 288 380 376C380 436 344 472 260 472C132 472 32 348 32 176ZM256 444C288 444 304 428 304 386C304 320 260 268 176 268H128C145 380 205 444 256 444ZM262 536H274L398 668H382L278 604H274L182 668H166Z" glyph-name="ecaron" horiz-adv-x="388" unicode="&#283;" /><glyph d="M32 176C32 44 96 -12 180 -12C268 -12 320 44 344 112C308 72 264 48 218 48C156 48 124 88 124 204C124 221 125 237 126 253C145 245 180 236 212 236C308 236 380 288 380 376C380 436 344 472 260 472C132 472 32 348 32 176ZM256 444C288 444 304 428 304 386C304 320 260 268 176 268H128C145 380 205 444 256 444ZM150 536H166L274 600H278L366 536H382L290 668H278Z" glyph-name="ecircumflex" horiz-adv-x="388" unicode="&#234;" /><glyph d="M32 176C32 44 96 -12 180 -12C268 -12 320 44 344 112C308 72 264 48 218 48C156 48 124 88 124 204C124 221 125 237 126 253C145 245 180 236 212 236C308 236 380 288 380 376C380 436 344 472 260 472C132 472 32 348 32 176ZM256 444C288 444 304 428 304 386C304 320 260 268 176 268H128C145 380 205 444 256 444ZM342 536C368 536 394 555 394 588C394 611 376 624 354 624C328 624 302 605 302 572C302 549 320 536 342 536ZM190 536C216 536 242 555 242 588C242 611 224 624 202 624C176 624 150 605 150 572C150 549 168 536 190 536Z" glyph-name="edieresis" horiz-adv-x="388" unicode="&#235;" /><glyph d="M32 176C32 44 96 -12 180 -12C268 -12 320 44 344 112C308 72 264 48 218 48C156 48 124 88 124 204C124 221 125 237 126 253C145 245 180 236 212 236C308 236 380 288 380 376C380 436 344 472 260 472C132 472 32 348 32 176ZM256 444C288 444 304 428 304 386C304 320 260 268 176 268H128C145 380 205 444 256 444ZM266 536C297 536 318 565 318 596C318 621 303 640 278 640C247 640 226 611 226 580C226 555 241 536 266 536Z" glyph-name="edotaccent" horiz-adv-x="388" unicode="&#279;" /><glyph d="M32 176C32 44 96 -12 180 -12C268 -12 320 44 344 112C308 72 264 48 218 48C156 48 124 88 124 204C124 221 125 237 126 253C145 245 180 236 212 236C308 236 380 288 380 376C380 436 344 472 260 472C132 472 32 348 32 176ZM256 444C288 444 304 428 304 386C304 320 260 268 176 268H128C145 380 205 444 256 444ZM282 536H298L238 644C224 669 212 676 198 676C182 676 170 664 170 648C170 634 177 624 192 612Z" glyph-name="egrave" horiz-adv-x="388" unicode="&#232;" /><glyph d="M36 124C36 31 120 -12 232 -12C361 -12 464 63 464 188C464 250 429 291 364 328L331 345L336 344C414 369 496 407 496 512C496 586 432 636 316 636C202 636 96 568 96 448C97 382 135 348 188 320L211 308C124 287 36 233 36 124ZM264 280C329 246 360 216 360 156C360 57 296 12 232 12C172 12 132 43 132 120C132 198 170 271 223 301ZM196 484C196 572 254 612 316 612C373 612 408 578 408 516C408 461 381 387 322 349L288 368C238 394 196 418 196 484Z" glyph-name="eight" horiz-adv-x="528" unicode="8" /><glyph d="M28 124C28 31 112 -12 224 -12C353 -12 456 63 456 188C456 250 421 291 356 328L323 345L328 344C406 369 488 407 488 512C488 586 424 636 308 636C194 636 88 568 88 448C89 382 127 348 180 320L203 308C116 287 28 233 28 124ZM256 280C321 246 352 216 352 156C352 57 288 12 224 12C164 12 124 43 124 120C124 198 162 271 215 301ZM188 484C188 572 246 612 308 612C365 612 400 578 400 516C400 461 373 387 314 349L280 368C230 394 188 418 188 484Z" glyph-name="eight.PPF" horiz-adv-x="500" /><glyph d="M52 124C52 38 118 -12 224 -12C337 -12 444 57 444 172C444 244 390 289 333 315C411 345 476 405 476 484C476 550 435 616 316 616C205 616 112 542 112 436C112 360 162 318 198 299C114 266 52 210 52 124ZM352 160C352 84 300 8 224 8C167 8 136 50 136 116C136 186 165 248 217 289C276 262 352 234 352 160ZM204 448C204 517 240 596 312 596C362 596 392 561 392 492C392 423 361 367 313 324C265 345 204 376 204 448Z" glyph-name="eight.TOSF" horiz-adv-x="528" /><glyph d="M6 66C6 17 57 -6 120 -6C196 -6 261 31 261 98C261 134 238 155 200 172L194 175C236 187 278 207 278 255C278 297 235 320 170 320C104 320 38 290 38 226C38 189 62 169 93 154C48 142 6 115 6 66ZM157 192C131 205 107 218 107 244C107 278 135 301 169 301C199 301 215 282 215 257C215 232 201 203 174 184ZM71 62C71 94 88 128 113 144L135 135C171 119 189 103 189 79C189 39 158 15 120 15C90 15 71 30 71 62Z" glyph-name="eight.denominator" horiz-adv-x="304" /><glyph d="M160 302C236 302 301 339 301 406C301 442 278 463 240 480L234 483C276 495 318 515 318 563C318 605 275 628 210 628C144 628 78 598 78 534C78 497 102 477 133 462C88 450 46 423 46 374C46 325 97 302 160 302ZM214 492 197 500C171 513 147 526 147 552C147 586 175 609 209 609C239 609 255 590 255 565C255 540 241 511 214 492ZM160 323C130 323 111 338 111 370C111 402 128 436 153 452L175 443C211 427 229 411 229 387C229 347 198 323 160 323Z" glyph-name="eight.numerator" horiz-adv-x="304" /><glyph d="M24 124C24 38 90 -12 196 -12C309 -12 416 57 416 172C416 244 362 289 305 315C383 345 448 405 448 484C448 550 407 616 288 616C177 616 84 542 84 436C84 360 134 318 170 299C86 266 24 210 24 124ZM324 160C324 84 272 8 196 8C139 8 108 50 108 116C108 186 137 248 189 289C248 262 324 234 324 160ZM176 448C176 517 212 596 284 596C334 596 364 561 364 492C364 423 333 367 285 324C237 345 176 376 176 448Z" glyph-name="eight.oldstyle" horiz-adv-x="468" /><glyph d="M448 36C448 8 466 -12 496 -12C530 -12 556 16 556 52C556 80 537 100 508 100C474 100 448 72 448 36ZM232 36C232 8 250 -12 280 -12C314 -12 340 16 340 52C340 80 321 100 292 100C258 100 232 72 232 36ZM12 36C12 8 30 -12 60 -12C94 -12 120 16 120 52C120 80 101 100 72 100C38 100 12 72 12 36Z" glyph-name="ellipsis" horiz-adv-x="616" unicode="&#8230;" /><glyph d="M32 176C32 44 96 -12 180 -12C268 -12 320 44 344 112C308 72 264 48 218 48C156 48 124 88 124 204C124 221 125 237 126 253C145 245 180 236 212 236C308 236 380 288 380 376C380 436 344 472 260 472C132 472 32 348 32 176ZM256 444C288 444 304 428 304 386C304 320 260 268 176 268H128C145 380 205 444 256 444ZM158 536H374L378 580H162Z" glyph-name="emacron" horiz-adv-x="388" unicode="&#275;" /><glyph d="M24 240H944L952 300H32Z" glyph-name="emdash" horiz-adv-x="976" unicode="&#8212;" /><glyph d="M40 288H724L728 340H44Z" glyph-name="emdash.cap" horiz-adv-x="748" /><glyph d="M28 240H460L468 296H36Z" glyph-name="endash" horiz-adv-x="488" unicode="&#8211;" /><glyph d="M40 288H472L476 340H44Z" glyph-name="endash.cap" horiz-adv-x="496" /><glyph d="M52 0H140L183 339C211 374 253 404 296 404C328 404 342 387 336 344L292 0C279 -105 248 -196 140 -220V-240C276 -240 358 -172 380 0L424 344C425 352 428 376 428 388C428 436 400 468 344 468C269 468 221 417 185 358L188 380C197 448 176 468 136 468C96 468 56 456 32 448V432L68 424C96 418 104 410 100 380Z" glyph-name="eng" horiz-adv-x="488" unicode="&#331;" /><glyph d="M66 -128C66 -166 109 -184 158 -184C186 -184 209 -176 222 -168V-148C209 -156 190 -160 174 -160C141 -160 122 -149 122 -120C122 -67 192 -32 239 -2C292 17 326 61 344 112C308 72 264 48 218 48C156 48 124 88 124 204C124 221 125 237 126 253C145 245 180 236 212 236C308 236 380 288 380 376C380 436 344 472 260 472C132 472 32 348 32 176C32 44 96 -12 180 -12C184 -12 189 -12 193 -11C139 -34 66 -71 66 -128ZM256 444C288 444 304 428 304 386C304 320 260 268 176 268H128C145 380 205 444 256 444Z" glyph-name="eogonek" horiz-adv-x="388" unicode="&#281;" /><glyph d="M44 368H500V412H44ZM44 204H500V248H44Z" glyph-name="equal" horiz-adv-x="540" unicode="=" /><glyph d="M200 516 311 603C359 555 367 486 368 417C345 450 311 472 256 472C127 472 36 320 36 192C36 65 107 -12 212 -12C405 -12 468 206 468 392C468 510 436 594 363 644L420 688L400 720L329 663C283 685 224 696 152 696L148 664C207 659 251 646 283 626L180 544ZM216 16C154 16 132 91 132 168C132 269 171 424 276 424C313 424 346 401 368 373C365 236 321 16 216 16Z" glyph-name="eth" horiz-adv-x="504" unicode="&#240;" /><glyph d="M2 178H39C36 165 34 152 34 139H-7L-19 111H35C41 37 88 -6 163 -6C234 -6 265 46 275 83H261C243 45 217 23 177 23C132 23 112 58 109 111H204L223 139H109C109 153 111 166 113 178H244L262 207H119C136 267 174 295 213 295C249 295 278 276 285 239L300 264C289 295 261 320 207 320C130 320 72 275 47 207H16Z" glyph-name="euro.denominator" horiz-adv-x="304" /><glyph d="M42 486H79C76 473 74 460 74 447H33L21 419H75C81 345 128 302 203 302C274 302 305 354 315 391H301C283 353 257 331 217 331C172 331 152 366 149 419H244L263 447H149C149 461 151 474 153 486H284L302 515H159C176 575 214 603 253 603C289 603 318 584 325 547L340 572C329 603 301 628 247 628C170 628 112 583 87 515H56Z" glyph-name="euro.numerator" horiz-adv-x="304" /><glyph d="M93 200H117C124 256 162 468 212 616C201 624 186 636 158 636C130 636 113 624 100 616C114 468 100 256 93 200ZM36 36C36 8 54 -12 84 -12C118 -12 144 16 144 52C144 80 125 100 96 100C62 100 36 72 36 36Z" glyph-name="exclam" horiz-adv-x="208" unicode="!" /><glyph d="M128 352C162 352 188 380 188 416C188 444 170 464 140 464C106 464 80 436 80 400C80 372 99 352 128 352ZM12 -164C23 -172 38 -184 66 -184C94 -184 111 -172 124 -164C110 -16 124 196 131 252H107C100 196 62 -16 12 -164Z" glyph-name="exclamdown" horiz-adv-x="208" unicode="&#161;" /><glyph d="M148 524C182 524 208 552 208 588C208 616 190 636 160 636C126 636 100 608 100 572C100 544 119 524 148 524ZM32 8C43 0 58 -12 86 -12C114 -12 131 0 144 8C130 156 144 368 151 424H127C120 368 82 156 32 8Z" glyph-name="exclamdown.cap" horiz-adv-x="216" /><glyph d="M32 420H105L32 -164C28 -192 21 -209 -4 -212L-36 -216V-240H200V-216L164 -212C121 -207 116 -192 120 -164L193 420H312V456H197L200 476C215 596 252 676 304 680C320 628 348 596 384 596C408 596 428 612 428 640C428 680 380 708 320 708C228 708 132 636 112 476L111 466C87 453 56 443 32 436Z" glyph-name="f" horiz-adv-x="276" unicode="f" /><glyph d="M32 420H105L32 -164C28 -192 21 -209 -4 -212L-36 -216V-240H200V-216L164 -212C121 -207 116 -192 120 -164L193 420H284V456H197L200 476C215 596 252 680 316 680C350 680 377 658 368 588L364 554L300 60L288 -12L363 1C381 -5 405 -12 432 -12C576 -12 680 112 680 308C680 424 624 472 560 472C500 472 455 420 429 384L472 708H468C449 700 429 695 405 692C385 702 358 708 324 708C228 708 132 636 112 476L111 466C87 453 56 443 32 436ZM520 408C560 408 588 384 588 296C588 128 520 24 416 24H383L427 367C452 390 489 408 520 408Z" glyph-name="f_b" horiz-adv-x="712" /><glyph d="M32 420H105L32 -164C28 -192 21 -209 -4 -212L-36 -216V-240H176V-216L152 -212C120 -208 115 -202 120 -164L193 420H345L272 -164C268 -192 261 -209 236 -212L204 -216V-240H440V-216L404 -212C361 -207 356 -192 360 -164L433 420H524V456H437L440 476C455 596 492 680 556 680C590 680 615 658 608 588L604 554L540 60L528 -12L603 1C621 -5 645 -12 672 -12C816 -12 920 112 920 308C920 424 864 472 800 472C740 472 695 420 669 384L712 708H708C689 700 669 695 645 692C625 702 598 708 564 708C521 708 479 694 443 665C425 691 378 708 332 708C228 708 132 636 112 476L111 466C87 453 56 443 32 436ZM760 408C800 408 828 384 828 296C828 128 760 24 656 24H623L667 367C692 390 729 408 760 408ZM352 476 349 456H197L200 476C215 596 252 676 316 680C329 636 359 607 389 598C371 565 358 525 352 476Z" glyph-name="f_f_b" horiz-adv-x="952" /><glyph d="M32 420H105L32 -164C28 -192 21 -209 -4 -212L-36 -216V-240H176V-216L152 -212C120 -208 115 -202 120 -164L193 420H345L272 -164C268 -192 261 -209 236 -212L204 -216V-240H440V-216L404 -212C361 -207 356 -192 360 -164L433 420H524V456H437L440 476C455 596 492 680 556 680C590 680 615 658 608 588L604 554L532 0H620L664 341C692 375 734 404 776 404C808 404 822 387 816 344L788 124C786 110 784 84 784 72C784 12 812 -12 860 -12C916 -12 952 20 964 32V48C948 40 928 32 904 32C880 32 871 44 871 72C871 88 874 116 876 128L904 344C905 352 908 376 908 388C908 436 880 468 824 468C750 468 702 419 667 361L712 708H708C689 700 669 695 645 692C625 702 598 708 564 708C521 708 479 694 443 665C425 691 378 708 332 708C228 708 132 636 112 476L111 466C87 453 56 443 32 436ZM352 476 349 456H197L200 476C215 596 252 676 316 680C329 636 359 607 389 598C371 565 358 525 352 476Z" glyph-name="f_f_h" horiz-adv-x="980" /><glyph d="M380 -220V-240C516 -240 598 -172 620 0L668 380C677 448 656 468 616 468C588 468 560 462 537 456H437L440 476C455 596 492 676 560 680C576 628 600 592 644 592C680 592 696 612 696 640C696 680 652 708 576 708C528 708 482 694 444 664C426 691 379 708 332 708C228 708 132 636 112 476L111 466C87 453 56 443 32 436V420H105L32 -164C28 -192 21 -209 -4 -212L-36 -216V-240H176V-216L152 -212C120 -208 115 -202 120 -164L193 420H344L300 76C296 48 289 31 264 28L232 24V0H468V24L432 28C389 33 384 48 388 76L432 420H548C577 420 584 410 580 380L532 0C519 -105 488 -196 380 -220ZM352 476 349 456H197L200 476C215 596 252 676 316 680C329 636 359 607 390 598C371 565 358 525 352 476Z" glyph-name="f_f_j" horiz-adv-x="704" /><glyph d="M32 420H105L32 -164C28 -192 21 -209 -4 -212L-36 -216V-240H176V-216L152 -212C120 -208 115 -202 120 -164L193 420H345L272 -164C268 -192 261 -209 236 -212L204 -216V-240H440V-216L404 -212C361 -207 356 -192 360 -164L433 420H524V456H437L440 476C455 596 492 680 556 680C590 680 615 658 608 588L604 554L532 0H620L649 224H652C664 224 671 215 680 192L728 72C749 14 772 -12 820 -12C868 -12 904 16 920 32V48C900 40 884 36 864 36C832 36 817 67 804 100L736 264L848 328C884 349 908 372 908 412C908 448 888 472 850 472C816 472 792 444 792 412C792 384 808 368 824 356C785 321 713 263 650 234L712 708H708C689 700 669 695 645 692C625 702 598 708 564 708C521 708 479 694 443 665C425 691 378 708 332 708C228 708 132 636 112 476L111 466C87 453 56 443 32 436ZM352 476 349 456H197L200 476C215 596 252 676 316 680C329 636 359 607 389 598C371 565 358 525 352 476Z" glyph-name="f_f_k" horiz-adv-x="920" /><glyph d="M549 96C549 29 573 -12 637 -12C701 -12 753 32 773 48V68C749 56 717 44 685 44C649 44 637 68 637 108C637 129 639 154 641 168L670 420H784V456H674L685 544H673L597 532L588 456H437L440 476C455 596 492 676 544 680C560 628 588 596 624 596C648 596 668 612 668 640C668 680 620 708 560 708C519 708 478 694 443 665C425 691 378 708 332 708C228 708 132 636 112 476L111 466C87 453 56 443 32 436V420H105L32 -164C28 -192 21 -209 -4 -212L-36 -216V-240H176V-216L152 -212C120 -208 115 -202 120 -164L193 420H345L272 -164C268 -192 261 -209 236 -212L204 -216V-240H440V-216L404 -212C361 -207 356 -192 360 -164L433 420H584L553 160C551 140 549 112 549 96ZM352 476 349 456H197L200 476C215 596 252 676 316 680C329 636 359 607 389 598C371 565 358 525 352 476Z" glyph-name="f_f_t" horiz-adv-x="776" /><glyph d="M32 420H105L32 -164C28 -192 21 -209 -4 -212L-36 -216V-240H200V-216L164 -212C121 -207 116 -192 120 -164L193 420H284V456H197L200 476C215 596 252 680 316 680C350 680 375 658 368 588L364 554L292 0H380L424 341C452 375 494 404 536 404C568 404 582 387 576 344L548 124C546 110 544 84 544 72C544 12 572 -12 620 -12C676 -12 712 20 724 32V48C708 40 688 32 664 32C640 32 631 44 631 72C631 88 634 116 636 128L664 344C665 352 668 376 668 388C668 436 640 468 584 468C510 468 462 419 427 361L472 708H468C449 700 429 695 405 692C385 702 358 708 324 708C228 708 132 636 112 476L111 466C87 453 56 443 32 436Z" glyph-name="f_h" horiz-adv-x="740" /><glyph d="M140 -220V-240C276 -240 358 -172 380 0L428 380C437 448 416 468 376 468C348 468 320 462 297 456H197L200 476C215 596 252 676 320 680C336 628 360 592 404 592C440 592 456 612 456 640C456 680 412 708 336 708C228 708 132 636 112 476L110 466C87 453 56 443 32 436V420H104L60 76C56 48 49 31 24 28L-8 24V0H228V24L192 28C149 33 144 48 148 76L192 420H312C337 419 344 408 340 380L292 0C279 -105 248 -196 140 -220Z" glyph-name="f_j" horiz-adv-x="464" /><glyph d="M32 420H105L32 -164C28 -192 21 -209 -4 -212L-36 -216V-240H200V-216L164 -212C121 -207 116 -192 120 -164L193 420H284V456H197L200 476C215 596 252 680 316 680C350 680 377 658 368 588L364 554L292 0H380L409 224H412C424 224 431 215 440 192L488 72C509 14 532 -12 580 -12C628 -12 664 16 680 32V48C660 40 644 36 624 36C592 36 577 67 564 100L496 264L608 328C644 349 668 372 668 412C668 448 648 472 610 472C576 472 552 444 552 412C552 384 568 368 584 356C545 321 473 263 410 234L472 708H468C449 700 429 695 405 692C385 702 358 708 324 708C228 708 132 636 112 476L111 466C87 453 56 443 32 436Z" glyph-name="f_k" horiz-adv-x="680" /><glyph d="M309 96C309 29 333 -12 397 -12C461 -12 513 32 533 48V68C509 56 477 44 445 44C409 44 397 68 397 108C397 129 399 154 401 168L430 420H544V456H434L445 544H433L357 532L348 456H197L200 476C215 596 252 676 304 680C320 628 348 596 384 596C408 596 428 612 428 640C428 680 380 708 320 708C228 708 132 636 112 476L111 466C87 453 56 443 32 436V420H105L32 -164C28 -192 21 -209 -4 -212L-36 -216V-240H200V-216L164 -212C121 -207 116 -192 120 -164L193 420H344L313 160C311 140 309 112 309 96Z" glyph-name="f_t" horiz-adv-x="536" /><glyph d="M32 420H105L32 -164C28 -192 21 -209 -4 -212L-36 -216V-240H176V-216L152 -212C120 -208 115 -202 120 -164L193 420H345L272 -164C268 -196 261 -209 236 -212L204 -216V-240H440V-216L404 -212C361 -207 356 -192 360 -164L433 420H552V456H437L440 476C455 596 492 676 544 680C560 628 588 596 624 596C648 596 668 612 668 640C668 680 620 708 560 708C519 708 478 694 443 665C425 691 378 708 332 708C228 708 132 636 112 476L111 466C87 453 56 443 32 436ZM352 476 349 456H197L200 476C215 596 252 676 316 680C329 636 359 607 389 598C371 565 358 525 352 476Z" glyph-name="ff" horiz-adv-x="516" unicode="&#64256;" /><glyph d="M544 72C544 12 572 -12 620 -12C676 -12 712 20 724 32V48C708 40 688 32 664 32C640 32 631 44 631 72C631 88 634 116 636 128L668 380C677 448 656 468 616 468C588 468 560 462 537 456H437L440 476C455 596 492 676 560 680C576 628 600 592 644 592C680 592 696 612 696 640C696 680 652 708 576 708C528 708 482 694 444 664C426 691 379 708 332 708C228 708 132 636 112 476L111 466C87 453 56 443 32 436V420H105L32 -164C28 -192 21 -209 -4 -212L-36 -216V-240H176V-216L152 -212C120 -208 115 -202 120 -164L193 420H345L272 -164C268 -192 261 -209 236 -212L204 -216V-240H440V-216L404 -212C361 -207 356 -192 360 -164L433 420H548C577 420 584 410 580 380L548 124C546 110 544 84 544 72ZM352 476 349 456H197L200 476C215 596 252 676 316 680C329 636 359 607 390 598C371 565 358 525 352 476Z" glyph-name="ffi" horiz-adv-x="740" unicode="&#64259;" /><glyph d="M32 420H105L32 -164C28 -192 21 -209 -4 -212L-36 -216V-240H176V-216L152 -212C120 -208 115 -202 120 -164L193 420H345L272 -164C268 -192 261 -209 236 -212L204 -216V-240H440V-216L404 -212C361 -207 356 -192 360 -164L433 420H524V456H437L440 476C455 596 492 680 556 680C590 680 615 658 608 588L604 554L548 124C546 110 544 84 544 72C544 12 572 -12 620 -12C676 -12 712 20 724 32V48C708 40 688 32 664 32C640 32 631 44 631 72C631 88 634 116 636 128L712 708H708C689 700 669 695 645 692C625 702 598 708 564 708C521 708 479 694 443 665C425 691 378 708 332 708C228 708 132 636 112 476L111 466C87 453 56 443 32 436ZM352 476 349 456H197L200 476C215 596 252 676 316 680C329 636 359 607 389 598C371 565 358 525 352 476Z" glyph-name="ffl" horiz-adv-x="752" unicode="&#64260;" /><glyph d="M304 72C304 12 332 -12 380 -12C436 -12 472 20 484 32V48C468 40 448 32 424 32C400 32 391 44 391 72C391 88 394 116 396 128L428 380C437 448 416 468 376 468C348 468 320 462 297 456H197L200 476C215 596 252 676 320 680C336 628 360 592 404 592C440 592 456 612 456 640C456 680 412 708 336 708C228 708 132 636 112 476L111 466C87 453 56 443 32 436V420H105L32 -164C28 -192 21 -209 -4 -212L-36 -216V-240H200V-216L164 -212C121 -207 116 -192 120 -164L193 420H308C337 420 344 410 340 380L308 124C306 110 304 84 304 72Z" glyph-name="fi" horiz-adv-x="500" unicode="&#64257;" /><glyph d="M20 84C20 20 120 -12 192 -12C337 -12 460 66 460 220C460 321 394 396 264 396C200 396 152 368 136 356C146 380 178 488 184 540H472L500 620H160C142 476 111 368 84 308H104C130 328 172 356 228 356C309 356 352 303 352 220C352 84 281 12 192 12C168 12 139 20 128 32L120 80C115 110 104 136 68 136C44 136 20 120 20 84Z" glyph-name="five" horiz-adv-x="528" unicode="5" /><glyph d="M4 84C4 20 104 -12 176 -12C321 -12 444 66 444 220C444 321 378 396 248 396C184 396 136 368 120 356C130 380 162 488 168 540H456L484 620H144C126 476 95 368 68 308H88C114 328 156 356 212 356C293 356 336 303 336 220C336 84 265 12 176 12C152 12 123 20 112 32L104 80C99 110 88 136 52 136C28 136 4 120 4 84Z" glyph-name="five.PPF" horiz-adv-x="488" /><glyph d="M63 -40C30 -40 19 -67 19 -94C19 -152 96 -184 168 -184C303 -184 420 -81 420 52C420 140 367 212 236 212C190 212 149 196 132 184C146 228 161 316 168 376H424L456 456H148C136 332 120 224 92 140H104C121 152 163 176 204 176C276 176 320 127 320 44C320 -46 268 -164 176 -164C149 -164 133 -157 124 -144L111 -96C103 -65 94 -40 63 -40Z" glyph-name="five.TOSF" horiz-adv-x="528" /><glyph d="M-1 45C-1 9 58 -6 98 -6C189 -6 255 37 255 112C255 167 208 203 139 203C109 203 83 194 68 184C75 200 86 236 89 257H254L275 312H77C66 240 47 183 30 150H46C62 162 86 173 114 173C158 173 179 150 179 111C179 52 144 16 98 16C84 16 70 19 62 24V21L58 46C54 64 45 76 27 76C13 76 -1 65 -1 45Z" glyph-name="five.denominator" horiz-adv-x="304" /><glyph d="M138 302C229 302 295 345 295 420C295 475 248 511 179 511C149 511 123 502 108 492C115 508 126 544 129 565H294L315 620H117C106 548 87 491 70 458H86C102 470 126 481 154 481C198 481 219 458 219 419C219 360 184 324 138 324C124 324 110 327 102 332V329L98 354C94 372 85 384 67 384C53 384 39 373 39 353C39 317 98 302 138 302Z" glyph-name="five.numerator" horiz-adv-x="304" /><glyph d="M23 -40C-10 -40 -21 -67 -21 -94C-21 -152 56 -184 128 -184C263 -184 380 -81 380 52C380 140 327 212 196 212C150 212 109 196 92 184C106 228 121 316 128 376H384L416 456H108C96 332 80 224 52 140H64C81 152 123 176 164 176C236 176 280 127 280 44C280 -46 228 -164 136 -164C109 -164 93 -157 84 -144L71 -96C63 -65 54 -40 23 -40Z" glyph-name="five.oldstyle" horiz-adv-x="444" /><glyph d="M32 420H105L32 -164C28 -192 21 -209 -4 -212L-36 -216V-240H200V-216L164 -212C121 -207 116 -192 120 -164L193 420H284V456H197L200 476C215 596 252 680 316 680C350 680 377 658 368 588L364 554L308 124C306 110 304 84 304 72C304 12 332 -12 380 -12C436 -12 472 20 484 32V48C468 40 448 32 424 32C400 32 391 44 391 72C391 88 394 116 396 128L472 708H468C449 700 429 695 405 692C385 702 358 708 324 708C228 708 132 636 112 476L111 466C87 453 56 443 32 436Z" glyph-name="fl" horiz-adv-x="512" unicode="&#64258;" /><glyph d="M92 288H202L140 -44C119 -158 74 -224 -4 -224C11 -206 16 -187 16 -168C16 -141 -8 -124 -36 -124C-64 -124 -88 -144 -88 -180C-88 -220 -48 -248 8 -248C110 -248 207 -194 240 -28L302 288H444V328H310L340 480C358 570 401 612 468 612C458 597 452 581 452 564C452 532 475 516 500 516C531 516 552 535 552 568C552 610 504 636 448 636C355 636 260 594 228 424L210 328H116Z" glyph-name="florin" horiz-adv-x="528" unicode="&#402;" /><glyph d="M76 288H186L124 -44C103 -158 58 -224 -20 -224C-5 -206 0 -187 0 -168C0 -141 -24 -124 -52 -124C-80 -124 -104 -144 -104 -180C-104 -220 -64 -248 -8 -248C94 -248 191 -194 224 -28L286 288H428V328H294L324 480C342 570 385 612 452 612C442 597 436 581 436 564C436 532 459 516 484 516C515 516 536 535 536 568C536 610 488 636 432 636C339 636 244 594 212 424L194 328H100Z" glyph-name="florin.PPF" horiz-adv-x="512" /><glyph d="M136 0H448L452 24L400 32C357 39 357 52 360 80L372 180H472L476 228H378L428 636H412C399 624 376 612 352 608L4 200V180H276L264 80C261 52 249 39 200 32L140 24ZM316 504 282 228H84Z" glyph-name="four" horiz-adv-x="528" unicode="4" /><glyph d="M140 0H452L456 24L404 32C361 39 361 52 364 80L376 180H476L480 228H382L432 636H416C403 624 380 612 356 608L8 200V180H280L268 80C265 52 253 39 204 32L144 24ZM320 504 286 228H88Z" glyph-name="four.PPF" horiz-adv-x="524" /><glyph d="M16 0H278L256 -176H344L366 0H448L472 64H374L428 480H412C399 471 352 459 332 456L20 56ZM328 404 286 64H72Z" glyph-name="four.TOSF" horiz-adv-x="528" /><glyph d="M57 0H251L254 22L223 26C199 29 197 33 199 42L205 87H263L266 120H210L239 320H229C220 314 198 308 182 306L-12 106L-14 87H135L129 43C128 33 121 29 94 26L60 22ZM40 120 158 245 140 120Z" glyph-name="four.denominator" horiz-adv-x="304" /><glyph d="M97 308H291L294 330L263 334C239 337 237 341 239 350L245 395H303L306 428H250L279 628H269C260 622 238 616 222 614L28 414L26 395H175L169 351C168 341 161 337 134 334L100 330ZM80 428 198 553 180 428Z" glyph-name="four.numerator" horiz-adv-x="304" /><glyph d="M8 0H270L248 -176H336L358 0H440L464 64H366L420 480H404C391 471 344 459 324 456L12 56ZM320 404 278 64H64Z" glyph-name="four.oldstyle" horiz-adv-x="492" /><glyph d="M-187 0 308 620H260L-235 0Z" glyph-name="fraction" horiz-adv-x="52" unicode="&#8260;" /><glyph d="M152 -12C217 -12 261 42 286 79L276 0C257 -140 208 -216 120 -220L100 -172C85 -135 68 -116 40 -116C16 -116 -8 -132 -8 -164C-8 -216 48 -248 116 -248C244 -248 339 -193 364 0L416 396L428 472L358 457C343 464 321 472 292 472C148 472 32 344 32 160C32 44 84 -12 152 -12ZM188 52C148 52 124 84 124 172C124 332 204 436 308 436H334L288 94C264 71 223 52 188 52Z" glyph-name="g" horiz-adv-x="476" unicode="g" /><glyph d="M152 -12C217 -12 261 42 286 79L276 0C257 -140 208 -216 120 -220L100 -172C85 -135 68 -116 40 -116C16 -116 -8 -132 -8 -164C-8 -216 48 -248 116 -248C244 -248 339 -193 364 0L416 396L428 472L358 457C343 464 321 472 292 472C148 472 32 344 32 160C32 44 84 -12 152 -12ZM188 52C148 52 124 84 124 172C124 332 204 436 308 436H334L288 94C264 71 223 52 188 52ZM286 536C358 536 395 584 402 640H390C386 608 350 576 290 576C230 576 202 608 206 640H194C187 584 214 536 286 536Z" glyph-name="gbreve" horiz-adv-x="476" unicode="&#287;" /><glyph d="M152 -12C217 -12 261 42 286 79L276 0C257 -140 208 -216 120 -220L100 -172C85 -135 68 -116 40 -116C16 -116 -8 -132 -8 -164C-8 -216 48 -248 116 -248C244 -248 339 -193 364 0L416 396L428 472L358 457C343 464 321 472 292 472C148 472 32 344 32 160C32 44 84 -12 152 -12ZM188 52C148 52 124 84 124 172C124 332 204 436 308 436H334L288 94C264 71 223 52 188 52ZM290 528C319 528 338 552 338 580C338 598 326 613 298 616C302 642 329 688 354 708H322C286 679 246 629 246 572C246 548 262 528 290 528Z" glyph-name="gcedilla" horiz-adv-x="476" /><glyph d="M152 -12C217 -12 261 42 286 79L276 0C257 -140 208 -216 120 -220L100 -172C85 -135 68 -116 40 -116C16 -116 -8 -132 -8 -164C-8 -216 48 -248 116 -248C244 -248 339 -193 364 0L416 396L428 472L358 457C343 464 321 472 292 472C148 472 32 344 32 160C32 44 84 -12 152 -12ZM188 52C148 52 124 84 124 172C124 332 204 436 308 436H334L288 94C264 71 223 52 188 52ZM170 536H186L294 600H298L386 536H402L310 668H298Z" glyph-name="gcircumflex" horiz-adv-x="476" unicode="&#285;" /><glyph d="M152 -12C217 -12 261 42 286 79L276 0C257 -140 208 -216 120 -220L100 -172C85 -135 68 -116 40 -116C16 -116 -8 -132 -8 -164C-8 -216 48 -248 116 -248C244 -248 339 -193 364 0L416 396L428 472L358 457C343 464 321 472 292 472C148 472 32 344 32 160C32 44 84 -12 152 -12ZM188 52C148 52 124 84 124 172C124 332 204 436 308 436H334L288 94C264 71 223 52 188 52ZM290 528C319 528 338 552 338 580C338 598 326 613 298 616C302 642 329 688 354 708H322C286 679 246 629 246 572C246 548 262 528 290 528Z" glyph-name="gcommaaccent" horiz-adv-x="476" unicode="&#291;" /><glyph d="M152 -12C217 -12 261 42 286 79L276 0C257 -140 208 -216 120 -220L100 -172C85 -135 68 -116 40 -116C16 -116 -8 -132 -8 -164C-8 -216 48 -248 116 -248C244 -248 339 -193 364 0L416 396L428 472L358 457C343 464 321 472 292 472C148 472 32 344 32 160C32 44 84 -12 152 -12ZM188 52C148 52 124 84 124 172C124 332 204 436 308 436H334L288 94C264 71 223 52 188 52ZM286 536C317 536 338 565 338 596C338 621 323 640 298 640C267 640 246 611 246 580C246 555 261 536 286 536Z" glyph-name="gdotaccent" horiz-adv-x="476" unicode="&#289;" /><glyph d="M32 420H105L32 -164C28 -192 21 -208 -4 -212L-36 -216V-240H200V-216L164 -212C121 -207 116 -192 120 -164L204 500C222 636 284 680 344 680C408 680 444 640 444 580C444 521 409 486 381 465C337 432 300 408 300 348C300 244 440 192 440 96C440 56 416 12 360 12C336 12 312 24 300 36C320 48 332 68 332 92C332 120 312 140 280 140C252 140 228 116 228 84C228 28 288 -12 360 -12C464 -12 524 44 524 132C524 244 376 292 376 400C376 423 392 439 404 451C440 487 520 512 520 588C520 660 457 708 348 708C224 708 132 632 112 476L111 466C87 453 56 443 32 436Z" glyph-name="germandbls" horiz-adv-x="544" unicode="&#223;" /><glyph d="M292 536H308L248 644C234 669 222 676 208 676C192 676 180 664 180 648C180 634 187 624 202 612Z" glyph-name="grave" horiz-adv-x="476" unicode="`" /><glyph d="M500 308V312L36 532V480L404 312L36 144V92Z" glyph-name="greater" horiz-adv-x="540" unicode="&gt;" /><glyph d="M500 308V312L36 532V480L404 312L36 144V92ZM44 -12V-56H500V-12Z" glyph-name="greaterequal" horiz-adv-x="540" unicode="&#8805;" /><glyph d="M168 224C204 196 276 128 304 92L308 116L248 228L336 348L340 372C304 336 215 268 172 240ZM156 116 96 228 184 348 188 372C152 336 63 268 20 240L16 224C52 196 124 128 152 92Z" glyph-name="guillemotleft" horiz-adv-x="344" unicode="&#171;" /><glyph d="M312 200 252 312 340 432 344 456C308 420 219 352 176 324L172 308C208 280 280 212 308 176ZM168 200 108 312 196 432 200 456C164 420 75 352 32 324L28 308C64 280 136 212 164 176Z" glyph-name="guillemotleft.cap" horiz-adv-x="344" /><glyph d="M168 92C204 128 293 196 336 224L340 240C304 268 232 336 204 372L200 348L260 236L172 116ZM16 92C52 128 141 196 184 224L188 240C152 268 80 336 52 372L48 348L108 236L20 116Z" glyph-name="guillemotright" horiz-adv-x="344" unicode="&#187;" /><glyph d="M164 176C200 212 289 280 332 308L336 324C300 352 228 420 200 456L196 432L256 320L168 200ZM20 176C56 212 145 280 188 308L192 324C156 352 84 420 56 456L52 432L112 320L24 200Z" glyph-name="guillemotright.cap" horiz-adv-x="344" /><glyph d="M156 116 96 228 184 348 188 372C152 336 63 268 20 240L16 224C52 196 124 128 152 92Z" glyph-name="guilsinglleft" horiz-adv-x="192" unicode="&#8249;" /><glyph d="M168 200 108 312 196 432 200 456C164 420 75 352 32 324L28 308C64 280 136 212 164 176Z" glyph-name="guilsinglleft.cap" horiz-adv-x="200" /><glyph d="M16 92C52 128 141 196 184 224L188 240C152 268 80 336 52 372L48 348L108 236L20 116Z" glyph-name="guilsinglright" horiz-adv-x="192" unicode="&#8250;" /><glyph d="M20 176C56 212 145 280 188 308L192 324C156 352 84 420 56 456L52 432L112 320L24 200Z" glyph-name="guilsinglright.cap" horiz-adv-x="200" /><glyph d="M304 72C304 12 332 -12 380 -12C436 -12 472 20 484 32V48C468 40 448 32 424 32C400 32 391 44 391 72C391 88 394 116 396 128L424 344C425 352 428 376 428 388C428 436 400 468 344 468C270 468 222 419 187 361L232 708H228C208 700 186 695 160 692L76 680V660L108 652C132 646 135 636 132 616L52 0H140L184 341C212 375 254 404 296 404C328 404 342 387 336 344L308 124C306 110 304 84 304 72Z" glyph-name="h" horiz-adv-x="500" unicode="h" /><glyph d="M304 72C304 12 332 -12 380 -12C436 -12 472 20 484 32V48C468 40 448 32 424 32C400 32 391 44 391 72C391 88 394 116 396 128L424 344C425 352 428 376 428 388C428 436 400 468 344 468C270 468 222 418 186 360L212 556H356L360 584H215L232 708H228C208 700 186 695 160 692L76 680V660L108 652C132 646 135 636 132 616L127 584H56L52 556H124L52 0H140L184 341C212 375 254 404 296 404C328 404 342 387 336 344L308 124C306 110 304 84 304 72Z" glyph-name="hbar" horiz-adv-x="500" unicode="&#295;" /><glyph d="M304 72C304 12 332 -12 380 -12C436 -12 472 20 484 32V48C468 40 448 32 424 32C400 32 391 44 391 72C391 88 394 116 396 128L424 344C425 352 428 376 428 388C428 436 400 468 344 468C270 468 222 419 187 361L232 708H228C208 700 186 695 160 692L76 680V660L108 652C132 646 135 636 132 616L52 0H140L184 341C212 375 254 404 296 404C328 404 342 387 336 344L308 124C306 110 304 84 304 72ZM70 760H86L194 824H198L286 760H302L210 892H198Z" glyph-name="hcircumflex" horiz-adv-x="500" unicode="&#293;" /><glyph d="M324 536H340L460 600C483 612 492 627 492 641C492 658 479 664 466 664C452 664 441 658 416 632ZM180 536H196L316 600C339 612 348 627 348 641C348 658 335 664 322 664C308 664 297 658 272 632Z" glyph-name="hungarumlaut" horiz-adv-x="476" unicode="&#733;" /><glyph d="M40 252H240L248 308H48Z" glyph-name="hyphen" horiz-adv-x="256" unicode="-" /><glyph d="M40 288H240L244 340H44Z" glyph-name="hyphen.cap" horiz-adv-x="264" /><glyph d="M164 572C208 572 234 608 234 648C234 680 212 700 180 700C136 700 110 664 110 624C110 592 132 572 164 572ZM64 72C64 12 92 -12 140 -12C196 -12 232 20 244 32V48C228 40 208 32 184 32C160 32 151 44 151 72C151 88 154 116 156 128L188 380C197 448 176 468 136 468C96 468 56 456 32 448V432L68 424C96 418 104 410 100 380L68 124C66 110 64 84 64 72Z" glyph-name="i" horiz-adv-x="260" unicode="i" /><glyph d="M64 72C64 12 92 -12 140 -12C196 -12 232 20 244 32V48C228 40 208 32 184 32C160 32 151 44 151 72C151 88 154 116 156 128L188 380C197 448 176 468 136 468C96 468 56 456 32 448V432L68 424C96 418 104 410 100 380L68 124C66 110 64 84 64 72ZM122 536H142L252 608C273 622 286 634 286 652C286 666 273 676 258 676C243 676 231 669 210 644Z" glyph-name="iacute" horiz-adv-x="260" unicode="&#237;" /><glyph d="M64 72C64 12 92 -12 140 -12C196 -12 232 20 244 32V48C228 40 208 32 184 32C160 32 151 44 151 72C151 88 154 116 156 128L188 380C197 448 176 468 136 468C96 468 56 456 32 448V432L68 424C96 418 104 410 100 380L68 124C66 110 64 84 64 72ZM158 536C230 536 267 584 274 640H262C258 608 222 576 162 576C102 576 74 608 78 640H66C59 584 86 536 158 536Z" glyph-name="ibreve" horiz-adv-x="260" unicode="&#301;" /><glyph d="M64 72C64 12 92 -12 140 -12C196 -12 232 20 244 32V48C228 40 208 32 184 32C160 32 151 44 151 72C151 88 154 116 156 128L188 380C197 448 176 468 136 468C96 468 56 456 32 448V432L68 424C96 418 104 410 100 380L68 124C66 110 64 84 64 72ZM42 536H58L166 600H170L258 536H274L182 668H170Z" glyph-name="icircumflex" horiz-adv-x="260" unicode="&#238;" /><glyph d="M64 72C64 12 92 -12 140 -12C196 -12 232 20 244 32V48C228 40 208 32 184 32C160 32 151 44 151 72C151 88 154 116 156 128L188 380C197 448 176 468 136 468C96 468 56 456 32 448V432L68 424C96 418 104 410 100 380L68 124C66 110 64 84 64 72ZM234 536C260 536 286 555 286 588C286 611 268 624 246 624C220 624 194 605 194 572C194 549 212 536 234 536ZM82 536C108 536 134 555 134 588C134 611 116 624 94 624C68 624 42 605 42 572C42 549 60 536 82 536Z" glyph-name="idieresis" horiz-adv-x="260" unicode="&#239;" /><glyph d="M64 72C64 12 92 -12 140 -12C196 -12 232 20 244 32V48C228 40 208 32 184 32C160 32 151 44 151 72C151 88 154 116 156 128L188 380C197 448 176 468 136 468C96 468 56 456 32 448V432L68 424C96 418 104 410 100 380L68 124C66 110 64 84 64 72ZM174 536H190L130 644C116 669 104 676 90 676C74 676 62 664 62 648C62 634 69 624 84 612Z" glyph-name="igrave" horiz-adv-x="260" unicode="&#236;" /><glyph d="M432 572C476 572 504 608 504 648C504 680 480 700 448 700C404 700 376 664 376 624C376 592 400 572 432 572ZM172 572C216 572 244 608 244 648C244 680 220 700 188 700C144 700 116 664 116 624C116 592 140 572 172 572ZM160 -220V-240C296 -240 378 -172 400 0L448 380C457 448 436 468 396 468C356 468 316 456 292 448V432L328 424C356 418 364 410 360 380L312 0C299 -105 268 -196 160 -220ZM64 72C64 12 92 -12 140 -12C196 -12 232 20 244 32V48C228 40 208 32 184 32C160 32 151 44 151 72C151 88 154 116 156 128L188 380C197 448 176 468 136 468C96 468 56 456 32 448V432L68 424C96 418 104 410 100 380L68 124C66 110 64 84 64 72Z" glyph-name="ij" horiz-adv-x="512" unicode="&#307;" /><glyph d="M64 72C64 12 92 -12 140 -12C196 -12 232 20 244 32V48C228 40 208 32 184 32C160 32 151 44 151 72C151 88 154 116 156 128L188 380C197 448 176 468 136 468C96 468 56 456 32 448V432L68 424C96 418 104 410 100 380L68 124C66 110 64 84 64 72ZM50 536H266L270 580H54Z" glyph-name="imacron" horiz-adv-x="260" unicode="&#299;" /><glyph d="M186 147C291 147 328 214 352 262C381 190 418 140 507 140C607 140 673 201 673 310C673 397 633 487 507 487C422 487 362 439 335 362C318 410 282 491 187 491C112 491 31 448 31 322C31 237 77 147 186 147ZM360 271C385 343 417 420 518 420C604 420 650 370 650 310C650 252 588 198 508 198C425 198 397 227 360 271ZM181 206C96 206 53 267 53 320C53 390 115 419 187 419C263 419 295 394 329 348C298 275 278 206 181 206Z" glyph-name="infinity" horiz-adv-x="700" unicode="&#8734;" /><glyph d="M-8 -128C-32 -128 -66 -148 -66 -184C-66 -229 -25 -248 16 -248C116 -248 238 -218 266 12L326 512C341 635 398 676 458 676C450 659 448 645 448 634C448 600 481 588 500 588C525 588 554 606 554 648C554 693 508 708 466 708C356 708 245 649 220 440L160 -52C145 -175 88 -216 28 -216C36 -199 40 -185 40 -174C40 -140 11 -128 -8 -128Z" glyph-name="integral" horiz-adv-x="528" unicode="&#8747;" /><glyph d="M22 -128C22 -166 65 -184 114 -184C142 -184 165 -176 178 -168V-148C165 -156 146 -160 130 -160C97 -160 78 -149 78 -120C78 -66 151 -31 198 0H197C221 10 237 25 244 32V48C228 40 208 32 184 32C160 32 151 44 151 72C151 88 154 116 156 128L188 380C197 448 176 468 136 468C96 468 56 456 32 448V432L68 424C96 418 104 410 100 380L68 124C66 110 64 84 64 72C64 12 92 -12 140 -12H148C94 -34 22 -71 22 -128ZM164 572C208 572 234 608 234 648C234 680 212 700 180 700C136 700 110 664 110 624C110 592 132 572 164 572Z" glyph-name="iogonek" horiz-adv-x="260" unicode="&#303;" /><glyph d="M64 72C64 12 92 -12 140 -12C196 -12 232 20 244 32V48C228 40 208 32 184 32C160 32 151 44 151 72C151 88 154 116 156 128L188 380C197 448 176 468 136 468C96 468 56 456 32 448V432L68 424C96 418 104 410 100 380L68 124C66 110 64 84 64 72ZM46 540H62C65 568 82 592 106 592C146 592 162 536 210 536C254 536 278 580 282 640H266C263 612 246 588 222 588C182 588 166 644 118 644C74 644 50 600 46 540Z" glyph-name="itilde" horiz-adv-x="260" unicode="&#297;" /><glyph d="M168 572C212 572 238 608 238 648C238 680 216 700 184 700C140 700 114 664 114 624C114 592 136 572 168 572ZM52 0C39 -105 8 -196 -100 -220V-240C36 -240 118 -172 140 0L188 380C197 448 176 468 136 468C96 468 56 456 32 448V432L68 424C96 418 104 410 100 380Z" glyph-name="j" horiz-adv-x="252" unicode="j" /><glyph d="M52 0C39 -105 8 -196 -100 -220V-240C36 -240 118 -172 140 0L188 380C197 448 176 468 136 468C96 468 56 456 32 448V432L68 424C96 418 104 410 100 380ZM42 536H58L166 600H170L258 536H274L182 668H170Z" glyph-name="jcircumflex" horiz-adv-x="252" unicode="&#309;" /><glyph d="M248 72C269 14 292 -12 340 -12C388 -12 424 16 440 32V48C420 40 404 36 384 36C352 36 337 67 324 100L256 264L368 328C404 349 428 372 428 412C428 448 408 472 370 472C336 472 312 444 312 412C312 384 328 368 344 356C305 321 233 263 170 234L232 708H228C208 700 186 695 160 692L76 680V660L108 652C132 646 135 636 132 616L52 0H140L169 224H172C184 224 191 215 200 192Z" glyph-name="k" horiz-adv-x="440" unicode="k" /><glyph d="M248 72C269 14 292 -12 340 -12C388 -12 424 16 440 32V48C420 40 404 36 384 36C352 36 337 67 324 100L256 264L368 328C404 349 428 372 428 412C428 448 408 472 370 472C336 472 312 444 312 412C312 384 328 368 344 356C305 321 233 263 170 234L232 708H228C208 700 186 695 160 692L76 680V660L108 652C132 646 135 636 132 616L52 0H140L169 224H172C184 224 191 215 200 192ZM150 -104C150 -122 162 -137 190 -140C186 -166 159 -212 134 -232H166C202 -203 242 -153 242 -96C242 -72 226 -52 198 -52C169 -52 150 -76 150 -104Z" glyph-name="kcedilla" horiz-adv-x="440" /><glyph d="M248 72C269 14 292 -12 340 -12C388 -12 424 16 440 32V48C420 40 404 36 384 36C352 36 337 67 324 100L256 264L368 328C404 349 428 372 428 412C428 448 408 472 370 472C336 472 312 444 312 412C312 384 328 368 344 356C305 321 233 263 170 234L232 708H228C208 700 186 695 160 692L76 680V660L108 652C132 646 135 636 132 616L52 0H140L169 224H172C184 224 191 215 200 192ZM150 -104C150 -122 162 -137 190 -140C186 -166 159 -212 134 -232H166C202 -203 242 -153 242 -96C242 -72 226 -52 198 -52C169 -52 150 -76 150 -104Z" glyph-name="kcommaaccent" horiz-adv-x="440" unicode="&#311;" /><glyph d="M64 72C64 12 92 -12 140 -12C196 -12 232 20 244 32V48C228 40 208 32 184 32C160 32 151 44 151 72C151 88 154 116 156 128L232 708H228C208 700 186 695 160 692L76 680V660L108 652C132 646 135 636 132 616L68 124C66 110 64 84 64 72Z" glyph-name="l" horiz-adv-x="272" unicode="l" /><glyph d="M64 72C64 12 92 -12 140 -12C196 -12 232 20 244 32V48C228 40 208 32 184 32C160 32 151 44 151 72C151 88 154 116 156 128L232 708H228C208 700 186 695 160 692L76 680V660L108 652C132 646 135 636 132 616L68 124C66 110 64 84 64 72ZM154 756H174L284 828C305 842 318 854 318 872C318 886 305 896 290 896C275 896 263 889 242 864Z" glyph-name="lacute" horiz-adv-x="272" unicode="&#314;" /><glyph d="M256 528H288C324 557 364 607 364 664C364 688 348 708 320 708C291 708 272 684 272 656C272 638 284 623 312 620C308 594 281 548 256 528ZM64 72C64 12 92 -12 140 -12C196 -12 232 20 244 32V48C228 40 208 32 184 32C160 32 151 44 151 72C151 88 154 116 156 128L232 708H228C208 700 186 695 160 692L76 680V660L108 652C132 646 135 636 132 616L68 124C66 110 64 84 64 72Z" glyph-name="lcaron" horiz-adv-x="272" unicode="&#318;" /><glyph d="M64 72C64 12 92 -12 140 -12C196 -12 232 20 244 32V48C228 40 208 32 184 32C160 32 151 44 151 72C151 88 154 116 156 128L232 708H228C208 700 186 695 160 692L76 680V660L108 652C132 646 135 636 132 616L68 124C66 110 64 84 64 72ZM78 -104C78 -122 90 -137 118 -140C114 -166 87 -212 62 -232H94C130 -203 170 -153 170 -96C170 -72 154 -52 126 -52C97 -52 78 -76 78 -104Z" glyph-name="lcedilla" horiz-adv-x="272" /><glyph d="M64 72C64 12 92 -12 140 -12C196 -12 232 20 244 32V48C228 40 208 32 184 32C160 32 151 44 151 72C151 88 154 116 156 128L232 708H228C208 700 186 695 160 692L76 680V660L108 652C132 646 135 636 132 616L68 124C66 110 64 84 64 72ZM78 -104C78 -122 90 -137 118 -140C114 -166 87 -212 62 -232H94C130 -203 170 -153 170 -96C170 -72 154 -52 126 -52C97 -52 78 -76 78 -104Z" glyph-name="lcommaaccent" horiz-adv-x="272" unicode="&#316;" /><glyph d="M64 72C64 12 92 -12 140 -12C196 -12 232 20 244 32V48C228 40 208 32 184 32C160 32 151 44 151 72C151 88 154 116 156 128L232 708H228C208 700 186 695 160 692L76 680V660L108 652C132 646 135 636 132 616L68 124C66 110 64 84 64 72ZM268 296C299 296 320 325 320 356C320 381 305 400 280 400C249 400 228 371 228 340C228 315 243 296 268 296Z" glyph-name="ldot" horiz-adv-x="272" unicode="&#320;" /><glyph d="M36 308 500 92V144L132 312L500 480V532L36 312Z" glyph-name="less" horiz-adv-x="540" unicode="&lt;" /><glyph d="M36 308 500 92V144L132 312L500 480V532L36 312ZM44 -12V-56H500V-12Z" glyph-name="lessequal" horiz-adv-x="540" unicode="&#8804;" /><glyph d="M44 288H452V108H500V332H44Z" glyph-name="logicalnot" horiz-adv-x="540" unicode="&#172;" /><glyph d="M32 420H105L32 -164C28 -192 21 -209 -4 -212L-36 -216V-240H200V-216L164 -212C121 -207 116 -192 120 -164L200 476C215 596 252 676 304 680C320 628 348 596 384 596C408 596 428 612 428 640C428 680 380 708 320 708C228 708 132 636 112 476L111 466C87 453 56 443 32 436Z" glyph-name="longs" horiz-adv-x="276" unicode="&#383;" /><glyph d="M228 -12 512 320 312 640 32 308ZM92 328 288 560 450 298 255 67Z" glyph-name="lozenge" horiz-adv-x="528" unicode="&#9674;" /><glyph d="M18 284 94 329 68 124C66 110 64 84 64 72C64 12 92 -12 140 -12C196 -12 232 20 244 32V48C228 40 208 32 184 32C160 32 151 44 151 72C151 88 154 116 156 128L190 385L282 440L286 480L195 426L232 708H228C208 700 186 695 160 692L76 680V660L108 652C132 646 135 636 132 616L100 370L22 324Z" glyph-name="lslash" horiz-adv-x="272" unicode="&#322;" /><glyph d="M52 0H140L183 339C211 374 249 404 292 404C324 404 338 387 332 344L288 0H376L419 340C447 374 486 404 528 404C560 404 574 387 568 344L540 124C538 110 536 84 536 72C536 12 564 -12 612 -12C668 -12 704 20 716 32V48C700 40 680 32 656 32C632 32 623 44 623 72C623 88 626 116 628 128L656 344C657 352 660 376 660 388C660 436 632 468 576 468C501 468 457 418 422 359C423 369 424 381 424 388C424 436 396 468 340 468C265 468 221 417 185 358L188 380C197 448 176 468 136 468C96 468 56 456 32 448V432L68 424C96 418 104 410 100 380Z" glyph-name="m" horiz-adv-x="732" unicode="m" /><glyph d="M168 536H384L388 580H172Z" glyph-name="macron" horiz-adv-x="476" unicode="&#175;" /><glyph d="M44 288H500V332H44Z" glyph-name="minus" horiz-adv-x="540" unicode="&#8722;" /><glyph d="M32 -172C30 -188 22 -204 12 -208L-24 -224L-20 -240C45 -238 117 -220 125 -148L141 -12H148C221 -12 269 37 305 94C304 86 304 77 304 72C304 12 332 -12 380 -12C436 -12 472 20 484 32V48C468 40 448 32 424 32C400 32 392 44 392 72C392 88 394 116 396 128L432 396L444 472L352 452L308 124L306 113C278 80 237 52 196 52C164 52 151 69 156 112L188 380L200 456L108 436L68 112L65 92Z" glyph-name="mu" horiz-adv-x="499" unicode="&#181;" /><glyph d="M96 92 274 277 452 92 484 124 305 310 484 496 452 528 274 343 96 528 64 496 242 310 64 124Z" glyph-name="multiply" horiz-adv-x="540" unicode="&#215;" /><glyph d="M52 0H140L183 339C211 374 253 404 296 404C328 404 342 387 336 344L308 124C306 110 304 84 304 72C304 12 332 -12 380 -12C436 -12 472 20 484 32V48C468 40 448 32 424 32C400 32 391 44 391 72C391 88 394 116 396 128L424 344C425 352 428 376 428 388C428 436 400 468 344 468C269 468 221 417 185 358L188 380C197 448 176 468 136 468C96 468 56 456 32 448V432L68 424C96 418 104 410 100 380Z" glyph-name="n" horiz-adv-x="500" unicode="n" /><glyph d="M52 0H140L183 339C211 374 253 404 296 404C328 404 342 387 336 344L308 124C306 110 304 84 304 72C304 12 332 -12 380 -12C436 -12 472 20 484 32V48C468 40 448 32 424 32C400 32 391 44 391 72C391 88 394 116 396 128L424 344C425 352 428 376 428 388C428 436 400 468 344 468C269 468 221 417 185 358L188 380C197 448 176 468 136 468C96 468 56 456 32 448V432L68 424C96 418 104 410 100 380ZM238 536H258L368 608C389 622 402 634 402 652C402 666 389 676 374 676C359 676 347 669 326 644Z" glyph-name="nacute" horiz-adv-x="500" unicode="&#324;" /><glyph d="M52 0H140L183 339C211 374 253 404 296 404C328 404 342 387 336 344L308 124C306 110 304 84 304 72C304 12 332 -12 380 -12C436 -12 472 20 484 32V48C468 40 448 32 424 32C400 32 391 44 391 72C391 88 394 116 396 128L424 344C425 352 428 376 428 388C428 436 400 468 344 468C269 468 221 417 185 358L188 380C197 448 176 468 136 468C96 468 56 456 32 448V432L68 424C96 418 104 410 100 380ZM114 528H146C182 557 222 607 222 664C222 688 206 708 178 708C149 708 130 684 130 656C130 638 142 623 170 620C166 594 139 548 114 528Z" glyph-name="napostrophe" horiz-adv-x="500" unicode="&#329;" /><glyph d="M52 0H140L183 339C211 374 253 404 296 404C328 404 342 387 336 344L308 124C306 110 304 84 304 72C304 12 332 -12 380 -12C436 -12 472 20 484 32V48C468 40 448 32 424 32C400 32 391 44 391 72C391 88 394 116 396 128L424 344C425 352 428 376 428 388C428 436 400 468 344 468C269 468 221 417 185 358L188 380C197 448 176 468 136 468C96 468 56 456 32 448V432L68 424C96 418 104 410 100 380ZM270 536H282L406 668H390L286 604H282L190 668H174Z" glyph-name="ncaron" horiz-adv-x="500" unicode="&#328;" /><glyph d="M52 0H140L183 339C211 374 253 404 296 404C328 404 342 387 336 344L308 124C306 110 304 84 304 72C304 12 332 -12 380 -12C436 -12 472 20 484 32V48C468 40 448 32 424 32C400 32 391 44 391 72C391 88 394 116 396 128L424 344C425 352 428 376 428 388C428 436 400 468 344 468C269 468 221 417 185 358L188 380C197 448 176 468 136 468C96 468 56 456 32 448V432L68 424C96 418 104 410 100 380ZM166 -104C166 -122 178 -137 206 -140C202 -166 175 -212 150 -232H182C218 -203 258 -153 258 -96C258 -72 242 -52 214 -52C185 -52 166 -76 166 -104Z" glyph-name="ncedilla" horiz-adv-x="500" /><glyph d="M52 0H140L183 339C211 374 253 404 296 404C328 404 342 387 336 344L308 124C306 110 304 84 304 72C304 12 332 -12 380 -12C436 -12 472 20 484 32V48C468 40 448 32 424 32C400 32 391 44 391 72C391 88 394 116 396 128L424 344C425 352 428 376 428 388C428 436 400 468 344 468C269 468 221 417 185 358L188 380C197 448 176 468 136 468C96 468 56 456 32 448V432L68 424C96 418 104 410 100 380ZM166 -104C166 -122 178 -137 206 -140C202 -166 175 -212 150 -232H182C218 -203 258 -153 258 -96C258 -72 242 -52 214 -52C185 -52 166 -76 166 -104Z" glyph-name="ncommaaccent" horiz-adv-x="500" unicode="&#326;" /><glyph d="M27 20C45 4 91 -12 147 -12C341 -12 495 179 495 412C495 566 400 636 283 636C151 636 51 536 51 408C51 294 121 232 215 232C280 232 343 261 381 309C350 147 265 20 139 20C91 20 49 32 27 48ZM271 280C188 280 151 332 151 408C151 529 210 612 283 612C356 612 395 555 395 452C395 410 392 369 385 330C361 303 310 280 271 280Z" glyph-name="nine" horiz-adv-x="528" unicode="9" /><glyph d="M32 20C50 4 96 -12 152 -12C346 -12 500 179 500 412C500 566 405 636 288 636C156 636 56 536 56 408C56 294 126 232 220 232C285 232 348 261 386 309C355 147 270 20 144 20C96 20 54 32 32 48ZM276 280C193 280 156 332 156 408C156 529 215 612 288 612C361 612 400 555 400 452C400 410 397 369 390 330C366 303 315 280 276 280Z" glyph-name="nine.PPF" horiz-adv-x="520" /><glyph d="M40 -140 36 -164C56 -176 91 -184 144 -184C364 -184 456 100 456 272C456 416 380 480 280 480C141 480 56 364 56 236C56 144 116 80 204 80C259 80 316 106 348 155C324 13 258 -156 136 -156C91 -156 68 -152 40 -140ZM252 128C180 128 152 176 152 244C152 326 185 456 276 456C336 456 360 400 360 273C360 244 357 209 351 171C324 146 284 128 252 128Z" glyph-name="nine.TOSF" horiz-adv-x="528" /><glyph d="M6 11C16 2 43 -6 74 -6C179 -6 278 76 278 205C278 286 220 320 154 320C68 320 16 266 16 205C16 143 54 113 109 113C144 113 175 126 197 148C181 77 138 20 70 20C41 20 17 26 6 33ZM147 148C105 148 87 170 87 206C87 262 116 300 154 300C187 300 206 276 206 227C206 208 204 187 200 166C188 155 164 148 147 148Z" glyph-name="nine.denominator" horiz-adv-x="304" /><glyph d="M46 319C56 310 83 302 114 302C219 302 318 384 318 513C318 594 260 628 194 628C108 628 56 574 56 513C56 451 94 421 149 421C184 421 215 434 237 456C221 385 178 328 110 328C81 328 57 334 46 341ZM187 456C145 456 127 478 127 514C127 570 156 608 194 608C227 608 246 584 246 535C246 516 244 495 240 474C228 463 204 456 187 456Z" glyph-name="nine.numerator" horiz-adv-x="304" /><glyph d="M20 -140 16 -164C36 -176 71 -184 124 -184C344 -184 436 100 436 272C436 416 360 480 260 480C121 480 36 364 36 236C36 144 96 80 184 80C239 80 296 106 328 155C304 13 238 -156 116 -156C71 -156 48 -152 20 -140ZM232 128C160 128 132 176 132 244C132 326 165 456 256 456C316 456 340 400 340 273C340 244 337 209 331 171C304 146 264 128 232 128Z" glyph-name="nine.oldstyle" horiz-adv-x="480" /><glyph d="M44 368H311L208 248H44V204H170L88 108H128L210 204H500V248H248L351 368H500V412H389L472 508H432L349 412H44Z" glyph-name="notequal" horiz-adv-x="540" unicode="&#8800;" /><glyph d="M52 0H140L183 339C211 374 253 404 296 404C328 404 342 387 336 344L308 124C306 110 304 84 304 72C304 12 332 -12 380 -12C436 -12 472 20 484 32V48C468 40 448 32 424 32C400 32 391 44 391 72C391 88 394 116 396 128L424 344C425 352 428 376 428 388C428 436 400 468 344 468C269 468 221 417 185 358L188 380C197 448 176 468 136 468C96 468 56 456 32 448V432L68 424C96 418 104 410 100 380ZM162 540H178C181 568 198 592 222 592C262 592 278 536 326 536C370 536 394 580 398 640H382C379 612 362 588 338 588C298 588 282 644 234 644C190 644 166 600 162 540Z" glyph-name="ntilde" horiz-adv-x="500" unicode="&#241;" /><glyph d="M125 -108 176 -122 259 129H407L328 -108L377 -122L461 129H633L648 172H476L528 328H676L691 371H543L617 593L568 608L490 371H342L415 594L366 609L287 371H132L117 328H272L219 172H81L66 129H204ZM274 172 328 328H474L422 172Z" glyph-name="numbersign" horiz-adv-x="745" unicode="#" /><glyph d="M36 176C36 48 100 -12 208 -12C328 -12 440 112 440 284C440 412 376 472 268 472C148 472 36 348 36 176ZM208 16C160 16 132 52 132 164C132 344 204 444 268 444C316 444 344 408 344 296C344 116 272 16 208 16Z" glyph-name="o" horiz-adv-x="476" unicode="o" /><glyph d="M36 176C36 48 100 -12 208 -12C328 -12 440 112 440 284C440 412 376 472 268 472C148 472 36 348 36 176ZM208 16C160 16 132 52 132 164C132 344 204 444 268 444C316 444 344 408 344 296C344 116 272 16 208 16ZM242 536H262L372 608C393 622 406 634 406 652C406 666 393 676 378 676C363 676 351 669 330 644Z" glyph-name="oacute" horiz-adv-x="476" unicode="&#243;" /><glyph d="M36 176C36 48 100 -12 208 -12C328 -12 440 112 440 284C440 412 376 472 268 472C148 472 36 348 36 176ZM208 16C160 16 132 52 132 164C132 344 204 444 268 444C316 444 344 408 344 296C344 116 272 16 208 16ZM278 536C350 536 387 584 394 640H382C378 608 342 576 282 576C222 576 194 608 198 640H186C179 584 206 536 278 536Z" glyph-name="obreve" horiz-adv-x="476" unicode="&#335;" /><glyph d="M36 176C36 48 100 -12 208 -12C328 -12 440 112 440 284C440 412 376 472 268 472C148 472 36 348 36 176ZM208 16C160 16 132 52 132 164C132 344 204 444 268 444C316 444 344 408 344 296C344 116 272 16 208 16ZM162 536H178L286 600H290L378 536H394L302 668H290Z" glyph-name="ocircumflex" horiz-adv-x="476" unicode="&#244;" /><glyph d="M36 176C36 48 100 -12 208 -12C328 -12 440 112 440 284C440 412 376 472 268 472C148 472 36 348 36 176ZM208 16C160 16 132 52 132 164C132 344 204 444 268 444C316 444 344 408 344 296C344 116 272 16 208 16ZM354 536C380 536 406 555 406 588C406 611 388 624 366 624C340 624 314 605 314 572C314 549 332 536 354 536ZM202 536C228 536 254 555 254 588C254 611 236 624 214 624C188 624 162 605 162 572C162 549 180 536 202 536Z" glyph-name="odieresis" horiz-adv-x="476" unicode="&#246;" /><glyph d="M36 176C36 48 100 -12 208 -12C266 -12 320 17 360 66C386 12 432 -12 488 -12C576 -12 628 44 652 112C616 72 572 48 526 48C464 48 432 88 432 204C432 221 433 237 434 253C453 245 488 236 520 236C616 236 688 288 688 376C688 436 652 472 568 472C506 472 451 443 411 394C386 447 338 472 268 472C148 472 36 348 36 176ZM208 16C160 16 132 52 132 164C132 344 204 444 268 444C316 444 344 408 344 296C344 116 272 16 208 16ZM564 444C596 444 612 428 612 386C612 320 568 268 484 268H436C453 380 513 444 564 444Z" glyph-name="oe" horiz-adv-x="696" unicode="&#339;" /><glyph d="M96 -128C96 -166 139 -184 188 -184C216 -184 239 -176 252 -168V-148C239 -156 220 -160 204 -160C171 -160 152 -149 152 -120C152 -66 225 -31 272 0H252C200 -20 96 -60 96 -128Z" glyph-name="ogonek" horiz-adv-x="476" unicode="&#731;" /><glyph d="M36 176C36 48 100 -12 208 -12C328 -12 440 112 440 284C440 412 376 472 268 472C148 472 36 348 36 176ZM208 16C160 16 132 52 132 164C132 344 204 444 268 444C316 444 344 408 344 296C344 116 272 16 208 16ZM294 536H310L250 644C236 669 224 676 210 676C194 676 182 664 182 648C182 634 189 624 204 612Z" glyph-name="ograve" horiz-adv-x="476" unicode="&#242;" /><glyph d="M36 176C36 48 100 -12 208 -12C328 -12 440 112 440 284C440 412 376 472 268 472C148 472 36 348 36 176ZM208 16C160 16 132 52 132 164C132 344 204 444 268 444C316 444 344 408 344 296C344 116 272 16 208 16ZM326 536H342L462 600C485 612 494 627 494 641C494 658 481 664 468 664C454 664 443 658 418 632ZM182 536H198L318 600C341 612 350 627 350 641C350 658 337 664 324 664C310 664 299 658 274 632Z" glyph-name="ohungarumlaut" horiz-adv-x="476" unicode="&#337;" /><glyph d="M36 176C36 48 100 -12 208 -12C328 -12 440 112 440 284C440 412 376 472 268 472C148 472 36 348 36 176ZM208 16C160 16 132 52 132 164C132 344 204 444 268 444C316 444 344 408 344 296C344 116 272 16 208 16ZM170 536H386L390 580H174Z" glyph-name="omacron" horiz-adv-x="476" unicode="&#333;" /><glyph d="M56 0H432L436 24L356 36C309 43 304 52 308 80L376 636H360L108 480L112 460L260 520L208 80C205 52 193 43 144 36L60 24Z" glyph-name="one" horiz-adv-x="528" unicode="1" /><glyph d="M-4 0H372L375 24L296 36C249 43 242 52 246 80L314 636H298L47 480L52 460L200 520L146 80C142 52 133 43 84 36L-1 24Z" glyph-name="one.PPF" horiz-adv-x="424" /><glyph d="M72 0H412L416 20L320 32C299 35 297 44 300 68L352 480H336L104 348L108 328L252 380L212 68C209 46 203 40 180 36L76 20Z" glyph-name="one.TOSF" horiz-adv-x="528" /><glyph d="M21 0H236L240 22C238 22 202 26 199 26C176 29 170 32 172 42L212 320H199L45 244L49 225L129 251L99 43C98 33 92 29 66 26L25 22Z" glyph-name="one.denominator" horiz-adv-x="304" /><glyph d="M61 308H276L280 330C278 330 242 334 239 334C216 337 210 340 212 350L252 628H239L85 552L89 533L169 559L139 351C138 341 132 337 106 334L65 330Z" glyph-name="one.numerator" horiz-adv-x="304" /><glyph d="M16 0H296L300 20L228 32C207 35 205 44 208 68L260 480H244L44 368L48 348L160 380L120 64C117 42 111 36 88 32L20 20Z" glyph-name="one.oldstyle" horiz-adv-x="348" /><glyph d="M61 308H276L280 330C278 330 242 334 239 334C216 337 210 340 212 350L252 628H239L85 552L89 533L169 559L139 351C138 341 132 337 106 334L65 330ZM129 0 624 620H576L81 0ZM350 0H578L625 110H612L573 66C565 58 553 52 539 52H424L513 109C560 139 617 182 617 241C617 287 580 320 513 320C432 320 383 265 391 205H404C406 251 445 279 486 279C525 279 545 265 545 236C543 179 496 137 459 107L350 16Z" glyph-name="onehalf" horiz-adv-x="660" unicode="&#189;" /><glyph d="M61 308H276L280 330C278 330 242 334 239 334C216 337 210 340 212 350L252 628H239L85 552L89 533L169 559L139 351C138 341 132 337 106 334L65 330ZM149 0 644 620H596L101 0ZM413 0H607L610 22L579 26C555 29 553 33 555 42L561 87H619L622 120H566L595 320H585C576 314 554 308 538 306L344 106L342 87H491L485 43C484 33 477 29 450 26L416 22ZM396 120 514 245 496 120Z" glyph-name="onequarter" horiz-adv-x="660" unicode="&#188;" /><glyph d="M61 308H276L280 330C278 330 242 334 239 334C216 337 210 340 212 350L252 628H239L85 552L89 533L169 559L139 351C138 341 132 337 106 334L65 330Z" glyph-name="onesuperior" horiz-adv-x="304" unicode="&#185;" /><glyph d="M128 312C171 312 199 346 215 369V368C215 328 237 312 268 312C307 312 334 334 343 344V356C331 350 318 346 304 346C288 346 282 354 282 371C282 380 284 398 285 406L309 578L317 628L262 618C251 623 235 628 217 628C121 628 46 545 46 425C46 350 81 312 128 312ZM215 381C200 368 178 358 159 358C132 358 117 380 117 433C117 535 163 602 230 602H245L218 402Z" glyph-name="ordfeminine" horiz-adv-x="325" unicode="&#170;" /><glyph d="M168 314C251 314 325 391 325 505C325 592 278 630 205 630C123 630 48 553 48 440C48 352 95 314 168 314ZM168 333C138 333 122 361 122 429C122 543 164 611 205 611C235 611 251 584 251 515C251 402 208 333 168 333Z" glyph-name="ordmasculine" horiz-adv-x="321" unicode="&#186;" /><glyph d="M36 176C36 108 54 60 86 29L16 -76H52L110 11C137 -4 169 -12 208 -12C328 -12 440 112 440 284C440 351 422 399 390 430L456 528H420L366 448C340 464 307 472 268 472C148 472 36 348 36 176ZM132 164C132 344 204 444 268 444C297 444 319 431 331 395L135 102C133 120 132 140 132 164ZM208 16C179 16 157 29 145 63L340 355C343 338 344 319 344 296C344 116 272 16 208 16Z" glyph-name="oslash" horiz-adv-x="476" unicode="&#248;" /><glyph d="M36 176C36 108 54 60 86 29L16 -76H52L110 11C137 -4 169 -12 208 -12C328 -12 440 112 440 284C440 351 422 399 390 430L456 528H420L366 448C340 464 307 472 268 472C148 472 36 348 36 176ZM132 164C132 344 204 444 268 444C297 444 319 431 331 395L135 102C133 120 132 140 132 164ZM208 16C179 16 157 29 145 63L340 355C343 338 344 319 344 296C344 116 272 16 208 16ZM242 536H262L372 608C393 622 406 634 406 652C406 666 393 676 378 676C363 676 351 669 330 644Z" glyph-name="oslashacute" horiz-adv-x="476" unicode="&#511;" /><glyph d="M36 176C36 48 100 -12 208 -12C328 -12 440 112 440 284C440 412 376 472 268 472C148 472 36 348 36 176ZM208 16C160 16 132 52 132 164C132 344 204 444 268 444C316 444 344 408 344 296C344 116 272 16 208 16ZM166 540H182C185 568 202 592 226 592C266 592 282 536 330 536C374 536 398 580 402 640H386C383 612 366 588 342 588C302 588 286 644 238 644C194 644 170 600 166 540Z" glyph-name="otilde" horiz-adv-x="476" unicode="&#245;" /><glyph d="M32 -164C28 -192 21 -208 -4 -212L-36 -216V-240H200V-216L164 -212C121 -207 116 -192 120 -164L140 1C156 -5 179 -12 200 -12C336 -12 440 112 440 308C440 424 384 472 320 472C259 472 213 418 188 382C196 448 175 468 136 468C96 468 56 456 32 448V432L68 424C96 418 104 410 100 380ZM280 408C320 408 348 384 348 296C348 128 280 24 176 24H143L186 366C210 389 249 408 280 408Z" glyph-name="p" horiz-adv-x="472" unicode="p" /><glyph d="M388 0H436L506 576H580L584 620H320C160 620 34 548 34 389C34 250 158 200 244 200H280L228 -240H280L380 576H458Z" glyph-name="paragraph" horiz-adv-x="540" unicode="&#182;" /><glyph d="M48 168C48 -12 148 -108 232 -144L236 -124C192 -96 128 12 128 180C128 468 260 620 332 660L336 680C210 635 48 493 48 168Z" glyph-name="parenleft" horiz-adv-x="296" unicode="(" /><glyph d="M84 224C84 38 169 -57 252 -92L256 -68C210 -37 164 37 164 188C164 495 280 644 348 684V708C238 665 84 519 84 224Z" glyph-name="parenleft.cap" horiz-adv-x="304" /><glyph d="M-36 -124 -40 -144C86 -99 248 43 248 368C248 548 148 644 64 680L60 660C104 632 168 524 168 356C168 68 36 -84 -36 -124Z" glyph-name="parenright" horiz-adv-x="296" unicode=")" /><glyph d="M-28 -68V-92C82 -49 236 97 236 392C236 578 151 673 68 708L64 684C110 653 156 579 156 428C156 121 40 -28 -28 -68Z" glyph-name="parenright.cap" horiz-adv-x="304" /><glyph d="M32 165C32 68 100 -12 216 -12C407 -12 468 164 468 328C468 557 332 624 164 636L156 600C306 577 367 513 372 347C349 383 307 412 236 412C116 412 32 288 32 165ZM220 20C158 20 128 80 128 169C128 259 168 364 260 364C301 364 344 346 372 309C368 207 333 20 220 20Z" glyph-name="partialdiff" horiz-adv-x="504" unicode="&#8706;" /><glyph d="M163 302C259 302 326 390 326 496C326 577 279 627 207 627C110 627 45 539 45 432C45 351 92 302 163 302ZM164 324C130 324 119 357 119 405C119 492 150 606 206 606C241 606 252 572 252 525C252 441 221 324 164 324ZM117 0 612 620H564L69 0ZM479 -6C575 -6 642 82 642 188C642 269 595 319 523 319C426 319 361 231 361 124C361 43 408 -6 479 -6ZM480 16C446 16 435 49 435 97C435 184 466 298 522 298C557 298 568 264 568 217C568 133 537 16 480 16Z" glyph-name="percent" horiz-adv-x="660" unicode="%" /><glyph d="M12 36C12 8 30 -12 60 -12C94 -12 120 16 120 52C120 80 101 100 72 100C38 100 12 72 12 36Z" glyph-name="period" horiz-adv-x="180" unicode="." /><glyph d="M94 156C126 156 153 180 157 212C160 244 139 268 107 268C75 268 48 244 45 212C41 180 62 156 94 156Z" glyph-name="periodcentered" horiz-adv-x="176" unicode="&#183;" /><glyph d="M94 260C126 260 153 284 157 316C160 348 139 372 107 372C75 372 48 348 45 316C41 284 62 260 94 260Z" glyph-name="periodcentered.cap" horiz-adv-x="184" /><glyph d="M163 302C259 302 326 390 326 496C326 577 279 627 207 627C110 627 45 539 45 432C45 351 92 302 163 302ZM164 324C130 324 119 357 119 405C119 492 150 606 206 606C241 606 252 572 252 525C252 441 221 324 164 324ZM117 0 612 620H564L69 0ZM479 -6C575 -6 642 82 642 188C642 269 595 319 523 319C426 319 361 231 361 124C361 43 408 -6 479 -6ZM480 16C446 16 435 49 435 97C435 184 466 298 522 298C557 298 568 264 568 217C568 133 537 16 480 16ZM783 -6C879 -6 946 82 946 188C946 269 899 319 827 319C730 319 665 231 665 124C665 43 712 -6 783 -6ZM784 16C750 16 739 49 739 97C739 184 770 298 826 298C861 298 872 264 872 217C872 133 841 16 784 16Z" glyph-name="perthousand" horiz-adv-x="964" unicode="&#8240;" /><glyph d="M68 -12C108 -12 160 11 172 104L207 384H325L292 124C290 110 288 84 288 72C288 12 316 -12 364 -12C420 -12 456 20 468 32V48C452 40 432 32 408 32C384 32 376 44 376 72C376 88 378 116 380 128L413 384H420C490 384 504 424 512 492H496L488 480C478 465 473 452 452 452L144 456C96 456 72 439 40 380L48 368L60 372C84 380 99 384 128 384H169L120 100C115 74 100 48 72 32C46 32 28 60 28 104H4C2 99 0 84 0 76C0 20 16 -12 68 -12Z" glyph-name="pi" horiz-adv-x="496" unicode="&#960;" /><glyph d="M44 288H248V36H296V288H500V332H296V560H248V332H44Z" glyph-name="plus" horiz-adv-x="540" unicode="+" /><glyph d="M44 288H248V56H296V288H500V332H296V560H248V332H44ZM44 -12V-56H500V-12Z" glyph-name="plusminus" horiz-adv-x="540" unicode="&#177;" /><glyph d="M-8 0H232L236 24L208 28C173 33 165 44 168 72L230 576H502L440 72C437 44 429 33 392 28L364 24L360 0H600L604 24L576 28C541 33 532 44 536 72L596 548C599 576 607 587 644 592L672 596L676 620H68L64 596L92 592C127 587 136 576 132 548L72 72C68 44 61 33 24 28L-4 24Z" glyph-name="product" horiz-adv-x="652" unicode="&#8719;" /><glyph d="M152 -12C215 -12 258 40 283 76L252 -164C248 -192 239 -207 196 -212L164 -216V-240H392V-216L364 -212C339 -208 336 -192 340 -164L408 368L424 476L343 462C329 467 310 472 288 472C144 472 32 344 32 160C32 44 84 -12 152 -12ZM188 52C148 52 124 84 124 172C124 332 200 436 304 436H329L285 93C261 70 222 52 188 52Z" glyph-name="q" horiz-adv-x="472" unicode="q" /><glyph d="M128 176H152C171 328 364 351 364 516C364 592 308 636 220 636C137 636 56 588 56 524C56 496 72 476 100 476C135 476 156 498 156 536C156 560 145 581 136 592C145 596 160 600 176 600C232 600 264 560 264 504C264 333 146 321 128 176ZM72 36C72 8 90 -12 120 -12C154 -12 180 16 180 52C180 80 161 100 132 100C98 100 72 72 72 36Z" glyph-name="question" horiz-adv-x="356" unicode="?" /><glyph d="M236 352C270 352 296 380 296 416C296 444 278 464 248 464C214 464 188 436 188 400C188 372 207 352 236 352ZM4 -64C4 -140 60 -184 148 -184C231 -184 312 -136 312 -72C312 -44 296 -24 268 -24C233 -24 212 -46 212 -84C212 -108 223 -129 232 -140C223 -144 208 -148 192 -148C136 -148 104 -108 104 -52C104 119 222 131 240 276H216C197 124 4 101 4 -64Z" glyph-name="questiondown" horiz-adv-x="356" unicode="&#191;" /><glyph d="M252 524C286 524 312 552 312 588C312 616 294 636 264 636C230 636 204 608 204 572C204 544 223 524 252 524ZM20 108C20 32 76 -12 164 -12C247 -12 328 36 328 100C328 128 312 148 284 148C249 148 228 126 228 88C228 64 239 43 248 32C239 28 224 24 208 24C152 24 120 64 120 120C120 291 238 303 256 448H232C213 296 20 273 20 108Z" glyph-name="questiondown.cap" horiz-adv-x="364" /><glyph d="M252 448H276C280 480 311 576 340 620C329 628 312 636 288 636C264 636 241 628 228 620C247 576 256 480 252 448ZM92 448H116C120 480 151 576 180 620C169 628 152 636 128 636C104 636 81 628 68 620C87 576 96 480 92 448Z" glyph-name="quotedbl" horiz-adv-x="320" unicode="&quot;" /><glyph d="M160 40C160 12 176 -4 204 -12C201 -36 176 -76 140 -108H180C221 -76 268 -19 268 44C268 76 248 96 216 96C184 96 160 72 160 40ZM12 40C12 12 28 -4 56 -12C53 -36 28 -76 -8 -108H32C73 -76 120 -19 120 44C120 76 100 96 68 96C36 96 12 72 12 40Z" glyph-name="quotedblbase" horiz-adv-x="328" unicode="&#8222;" /><glyph d="M260 416C292 416 316 440 316 472C316 500 300 516 272 524C275 548 300 588 336 620H296C255 588 208 531 208 468C208 436 228 416 260 416ZM112 416C144 416 168 440 168 472C168 500 152 516 124 524C127 548 152 588 188 620H148C107 588 60 531 60 468C60 436 80 416 112 416Z" glyph-name="quotedblleft" horiz-adv-x="328" unicode="&#8220;" /><glyph d="M200 416H240C281 448 328 505 328 568C328 600 308 620 276 620C244 620 220 596 220 564C220 536 236 520 264 512C261 488 236 448 200 416ZM52 416H92C133 448 180 505 180 568C180 600 160 620 128 620C96 620 72 596 72 564C72 536 88 520 116 512C113 488 88 448 52 416Z" glyph-name="quotedblright" horiz-adv-x="340" unicode="&#8221;" /><glyph d="M112 416C144 416 168 440 168 472C168 500 152 516 124 524C127 548 152 588 188 620H148C107 588 60 531 60 468C60 436 80 416 112 416Z" glyph-name="quoteleft" horiz-adv-x="180" unicode="&#8216;" /><glyph d="M60 416H100C141 448 188 505 188 568C188 600 168 620 136 620C104 620 80 596 80 564C80 536 96 520 124 512C121 488 96 448 60 416Z" glyph-name="quoteright" horiz-adv-x="180" unicode="&#8217;" /><glyph d="M12 40C12 12 28 -4 56 -12C53 -36 28 -76 -8 -108H32C73 -76 120 -19 120 44C120 76 100 96 68 96C36 96 12 72 12 40Z" glyph-name="quotesinglbase" horiz-adv-x="180" unicode="&#8218;" /><glyph d="M92 448H116C120 480 151 576 180 620C169 628 152 636 128 636C104 636 81 628 68 620C87 576 96 480 92 448Z" glyph-name="quotesingle" horiz-adv-x="160" unicode="'" /><glyph d="M52 0H140L180 316C196 347 221 384 240 392C248 364 268 352 288 352C320 352 344 376 344 416C344 452 320 468 292 468C242 468 210 409 183 345L188 380C197 448 176 468 136 468C96 468 56 456 32 448V432L68 424C96 418 104 410 100 380Z" glyph-name="r" horiz-adv-x="332" unicode="r" /><glyph d="M52 0H140L180 316C196 347 221 384 240 392C248 364 268 352 288 352C320 352 344 376 344 416C344 452 320 468 292 468C242 468 210 409 183 345L188 380C197 448 176 468 136 468C96 468 56 456 32 448V432L68 424C96 418 104 410 100 380ZM174 536H194L304 608C325 622 338 634 338 652C338 666 325 676 310 676C295 676 283 669 262 644Z" glyph-name="racute" horiz-adv-x="332" unicode="&#341;" /><glyph d="M208 -12H228L588 748H548L252 104L188 464L12 392L24 364L128 404Z" glyph-name="radical" horiz-adv-x="528" unicode="&#8730;" /><glyph d="M52 0H140L180 316C196 347 221 384 240 392C248 364 268 352 288 352C320 352 344 376 344 416C344 452 320 468 292 468C242 468 210 409 183 345L188 380C197 448 176 468 136 468C96 468 56 456 32 448V432L68 424C96 418 104 410 100 380ZM206 536H218L342 668H326L222 604H218L126 668H110Z" glyph-name="rcaron" horiz-adv-x="332" unicode="&#345;" /><glyph d="M52 0H140L180 316C196 347 221 384 240 392C248 364 268 352 288 352C320 352 344 376 344 416C344 452 320 468 292 468C242 468 210 409 183 345L188 380C197 448 176 468 136 468C96 468 56 456 32 448V432L68 424C96 418 104 410 100 380ZM38 -104C38 -122 50 -137 78 -140C74 -166 47 -212 22 -232H54C90 -203 130 -153 130 -96C130 -72 114 -52 86 -52C57 -52 38 -76 38 -104Z" glyph-name="rcedilla" horiz-adv-x="332" /><glyph d="M52 0H140L180 316C196 347 221 384 240 392C248 364 268 352 288 352C320 352 344 376 344 416C344 452 320 468 292 468C242 468 210 409 183 345L188 380C197 448 176 468 136 468C96 468 56 456 32 448V432L68 424C96 418 104 410 100 380ZM38 -104C38 -122 50 -137 78 -140C74 -166 47 -212 22 -232H54C90 -203 130 -153 130 -96C130 -72 114 -52 86 -52C57 -52 38 -76 38 -104Z" glyph-name="rcommaaccent" horiz-adv-x="332" unicode="&#343;" /><glyph d="M28 312C28 124 175 -12 356 -12C537 -12 684 124 684 312C684 500 537 636 356 636C175 636 28 500 28 312ZM80 312C80 468 195 596 356 596C517 596 632 468 632 312C632 156 517 28 356 28C195 28 80 156 80 312ZM172 144H352V160L316 168C303 171 300 172 300 180V288H336L396 204C416 175 434 152 448 144H552V160L516 168C502 176 490 194 476 212L440 256C419 281 407 292 396 299C452 313 496 354 496 396C496 456 438 488 352 488H172V472L208 464C223 461 224 460 224 452V180C224 172 223 171 208 168L172 160ZM348 464C407 464 420 427 420 388C420 338 398 308 332 308H300V460C316 464 332 464 348 464Z" glyph-name="registered" horiz-adv-x="712" unicode="&#174;" /><glyph d="M276 536C323 536 372 567 372 620C372 659 337 680 296 680C249 680 200 649 200 596C200 557 235 536 276 536ZM280 552C255 552 240 570 240 596C240 633 261 664 292 664C317 664 332 646 332 620C332 583 311 552 280 552Z" glyph-name="ring" horiz-adv-x="476" unicode="&#730;" /><glyph d="M12 96C12 32 88 -12 164 -12C272 -12 340 36 340 124C340 180 309 216 256 252L192 296C168 312 136 336 136 376C136 424 176 448 212 448C228 448 236 446 248 440C256 376 280 344 312 344C340 344 356 360 356 388C356 432 296 472 212 472C124 472 60 424 60 348C60 280 100 252 140 224L204 180C235 159 252 136 252 96C252 44 216 12 164 12C132 12 96 28 84 48C100 60 116 80 116 104C116 132 96 156 64 156C36 156 12 132 12 96Z" glyph-name="s" horiz-adv-x="372" unicode="s" /><glyph d="M12 96C12 32 88 -12 164 -12C272 -12 340 36 340 124C340 180 309 216 256 252L192 296C168 312 136 336 136 376C136 424 176 448 212 448C228 448 236 446 248 440C256 376 280 344 312 344C340 344 356 360 356 388C356 432 296 472 212 472C124 472 60 424 60 348C60 280 100 252 140 224L204 180C235 159 252 136 252 96C252 44 216 12 164 12C132 12 96 28 84 48C100 60 116 80 116 104C116 132 96 156 64 156C36 156 12 132 12 96ZM186 536H206L316 608C337 622 350 634 350 652C350 666 337 676 322 676C307 676 295 669 274 644Z" glyph-name="sacute" horiz-adv-x="372" unicode="&#347;" /><glyph d="M12 96C12 32 88 -12 164 -12C272 -12 340 36 340 124C340 180 309 216 256 252L192 296C168 312 136 336 136 376C136 424 176 448 212 448C228 448 236 446 248 440C256 376 280 344 312 344C340 344 356 360 356 388C356 432 296 472 212 472C124 472 60 424 60 348C60 280 100 252 140 224L204 180C235 159 252 136 252 96C252 44 216 12 164 12C132 12 96 28 84 48C100 60 116 80 116 104C116 132 96 156 64 156C36 156 12 132 12 96ZM218 536H230L354 668H338L234 604H230L138 668H122Z" glyph-name="scaron" horiz-adv-x="372" unicode="&#353;" /><glyph d="M102 -68C154 -76 182 -88 182 -116C182 -147 159 -164 118 -164C94 -164 69 -156 54 -148V-168C69 -176 90 -184 122 -184C183 -184 238 -166 238 -108C238 -66 194 -43 146 -36L165 -12C272 -11 340 36 340 124C340 180 309 216 256 252L192 296C168 312 136 336 136 376C136 424 176 448 212 448C228 448 236 446 248 440C256 376 280 344 312 344C340 344 356 360 356 388C356 432 296 472 212 472C124 472 60 424 60 348C60 280 100 252 140 224L204 180C235 159 252 136 252 96C252 44 216 12 164 12C132 12 96 28 84 48C100 60 116 80 116 104C116 132 96 156 64 156C36 156 12 132 12 96C12 36 78 -6 149 -11Z" glyph-name="scedilla" horiz-adv-x="372" unicode="&#351;" /><glyph d="M12 96C12 32 88 -12 164 -12C272 -12 340 36 340 124C340 180 309 216 256 252L192 296C168 312 136 336 136 376C136 424 176 448 212 448C228 448 236 446 248 440C256 376 280 344 312 344C340 344 356 360 356 388C356 432 296 472 212 472C124 472 60 424 60 348C60 280 100 252 140 224L204 180C235 159 252 136 252 96C252 44 216 12 164 12C132 12 96 28 84 48C100 60 116 80 116 104C116 132 96 156 64 156C36 156 12 132 12 96ZM106 536H122L230 600H234L322 536H338L246 668H234Z" glyph-name="scircumflex" horiz-adv-x="372" unicode="&#349;" /><glyph d="M12 96C12 32 88 -12 164 -12C272 -12 340 36 340 124C340 180 309 216 256 252L192 296C168 312 136 336 136 376C136 424 176 448 212 448C228 448 236 446 248 440C256 376 280 344 312 344C340 344 356 360 356 388C356 432 296 472 212 472C124 472 60 424 60 348C60 280 100 252 140 224L204 180C235 159 252 136 252 96C252 44 216 12 164 12C132 12 96 28 84 48C100 60 116 80 116 104C116 132 96 156 64 156C36 156 12 132 12 96ZM106 -104C106 -122 118 -137 146 -140C142 -166 115 -212 90 -232H122C158 -203 198 -153 198 -96C198 -72 182 -52 154 -52C125 -52 106 -76 106 -104Z" glyph-name="scommaaccent" horiz-adv-x="372" unicode="&#537;" /><glyph d="M78 -84C43 -84 18 -112 18 -144C18 -199 84 -240 174 -240C274 -240 381 -172 381 -70C381 -19 353 20 318 47C393 78 452 138 452 217C452 287 403 321 358 352L296 396C248 430 224 452 224 490C224 555 278 608 338 608C371 608 392 599 411 584C396 564 388 545 388 528C388 501 405 480 437 480C472 480 497 508 497 540C497 595 431 636 341 636C241 636 134 568 134 466C134 415 162 376 196 349C121 318 63 257 63 179C63 109 112 75 157 44L219 0C267 -34 291 -56 291 -94C291 -159 237 -212 177 -212C144 -212 123 -203 104 -188C119 -168 127 -149 127 -132C127 -105 110 -84 78 -84ZM330 248C350 232 361 211 361 185C361 133 336 91 300 60L185 148C165 164 154 185 154 211C154 263 179 305 214 335Z" glyph-name="section" horiz-adv-x="520" unicode="&#167;" /><glyph d="M92 264C126 264 152 292 152 328C152 356 133 376 104 376C70 376 44 348 44 312C44 284 62 264 92 264ZM12 36C12 8 32 -12 60 -12C56 -44 20 -100 -12 -124H28C72 -88 120 -28 120 44C120 76 104 100 72 100C40 100 12 76 12 36Z" glyph-name="semicolon" horiz-adv-x="180" unicode=";" /><glyph d="M84 0H160L524 604V620H116L84 540H448Z" glyph-name="seven" horiz-adv-x="528" unicode="7" /><glyph d="M60 0H136L500 604V620H92L60 540H424Z" glyph-name="seven.PPF" horiz-adv-x="468" /><glyph d="M56 -176H136L480 440L484 456H108L76 376H408Z" glyph-name="seven.TOSF" horiz-adv-x="528" /><glyph d="M31 0H87L291 299V312H55L34 256H235Z" glyph-name="seven.denominator" horiz-adv-x="304" /><glyph d="M71 308H127L331 607V620H95L74 564H275Z" glyph-name="seven.numerator" horiz-adv-x="304" /><glyph d="M8 -176H88L432 440L436 456H60L28 376H360Z" glyph-name="seven.oldstyle" horiz-adv-x="440" /><glyph d="M44 220C44 58 130 -12 244 -12C391 -12 484 96 484 228C484 336 414 392 320 392C262 392 206 366 161 317C192 482 280 604 412 604C460 604 490 592 512 576L516 604C497 620 456 636 400 636C201 636 44 458 44 220ZM264 344C342 344 380 297 380 220C380 88 318 12 244 12C173 12 148 75 148 176C148 219 152 262 158 302C186 326 231 344 264 344Z" glyph-name="six" horiz-adv-x="528" unicode="6" /><glyph d="M36 220C36 58 122 -12 236 -12C383 -12 476 96 476 228C476 336 406 392 312 392C254 392 198 366 153 317C184 482 272 604 404 604C452 604 482 592 504 576L508 604C489 620 448 636 392 636C193 636 36 458 36 220ZM256 344C334 344 372 297 372 220C372 88 310 12 236 12C165 12 140 75 140 176C140 219 144 262 150 302C178 326 223 344 256 344Z" glyph-name="six.PPF" horiz-adv-x="520" /><glyph d="M48 196C48 52 120 -12 220 -12C359 -12 448 100 448 228C448 320 388 380 300 380C244 380 187 353 154 304C177 433 242 588 376 588C421 588 447 576 468 560L472 584C455 600 421 616 368 616C140 616 48 368 48 196ZM252 332C324 332 352 288 352 220C352 138 315 12 224 12C164 12 144 72 144 195C144 221 146 253 151 287C178 313 219 332 252 332Z" glyph-name="six.TOSF" horiz-adv-x="528" /><glyph d="M11 114C11 30 65 -6 129 -6C221 -6 272 51 272 115C272 174 232 203 177 203C146 203 117 191 93 168C110 239 153 296 223 296C252 296 270 291 281 284L284 304C272 311 247 320 216 320C108 320 11 244 11 114ZM84 89C84 110 86 131 89 150C103 160 123 167 139 167C180 167 198 146 198 112C198 52 166 16 130 16C97 16 84 41 84 89Z" glyph-name="six.denominator" horiz-adv-x="304" /><glyph d="M169 302C261 302 312 359 312 423C312 482 272 511 217 511C186 511 157 499 133 476C150 547 193 604 263 604C292 604 310 599 321 592L324 612C312 619 287 628 256 628C148 628 51 552 51 422C51 338 105 302 169 302ZM170 324C137 324 124 349 124 397C124 418 126 439 129 458C143 468 163 475 179 475C220 475 238 454 238 420C238 360 206 324 170 324Z" glyph-name="six.numerator" horiz-adv-x="304" /><glyph d="M40 196C40 52 112 -12 212 -12C351 -12 440 100 440 228C440 320 380 380 292 380C236 380 179 353 146 304C169 433 234 588 368 588C413 588 439 576 460 560L464 584C447 600 413 616 360 616C132 616 40 368 40 196ZM244 332C316 332 344 288 344 220C344 138 307 12 216 12C156 12 136 72 136 195C136 221 138 253 143 287C170 313 211 332 244 332Z" glyph-name="six.oldstyle" horiz-adv-x="480" /><glyph d="M-2 -76H37L347 620H307Z" glyph-name="slash" horiz-adv-x="312" unicode="/" /><glyph d="M108 36H109C142 5 185 -12 236 -12C389 -12 512 150 512 376C512 532 439 636 312 636C155 636 36 471 36 244C36 153 62 81 108 37ZM236 12C200 12 176 31 161 63L398 528C405 499 408 463 408 424C408 226 349 12 236 12ZM140 200C140 408 201 612 312 612C343 612 365 598 380 573L147 112C142 138 140 168 140 200Z" glyph-name="slashedzero" horiz-adv-x="528" /><glyph d="M112 36H113C146 5 189 -12 240 -12C393 -12 516 150 516 376C516 532 443 636 316 636C159 636 40 471 40 244C40 153 66 81 112 37ZM240 12C204 12 180 31 165 63L402 528C409 499 412 463 412 424C412 226 353 12 240 12ZM144 200C144 408 205 612 316 612C347 612 369 598 384 573L151 112C146 138 144 168 144 200Z" glyph-name="slashedzero.PPF" horiz-adv-x="540" /><glyph d="M36 180C36 56 112 -12 232 -12C368 -12 488 116 488 288C488 412 412 480 292 480C156 480 36 352 36 180ZM132 168C132 348 212 452 292 452C312 452 331 447 346 436L157 56C141 81 132 118 132 168ZM392 304C392 124 312 16 232 16C213 16 196 21 181 31L369 410C383 386 392 351 392 304Z" glyph-name="slashedzero.TOSF" horiz-adv-x="528" /><glyph d="M36 180C36 56 112 -12 232 -12C368 -12 488 116 488 288C488 412 412 480 292 480C156 480 36 352 36 180ZM132 168C132 348 212 452 292 452C312 452 331 447 346 436L157 56C141 81 132 118 132 168ZM392 304C392 124 312 16 232 16C213 16 196 21 181 31L369 410C383 386 392 351 392 304Z" glyph-name="slashedzero.oldstyle" horiz-adv-x="524" /><glyph glyph-name="space" horiz-adv-x="200" unicode=" " /><glyph d="M56 304H150L136 172C128 102 67 56 20 56L-24 12V-4C-13 1 4 4 20 4C172 4 196 -20 304 -20C428 -20 480 44 488 152H468C463 84 416 48 340 48C271 48 236 64 100 64C174 82 232 141 244 260L248 304H432L436 344H252L264 452C276 569 330 612 400 612C412 612 427 608 440 600C426 586 420 565 420 552C420 528 440 504 472 504C508 504 524 528 524 564C524 600 476 636 400 636C264 636 180 571 164 428L155 344H76Z" glyph-name="sterling" horiz-adv-x="528" unicode="&#163;" /><glyph d="M60 304H154L140 172C132 102 71 56 24 56L-20 12V-4C-9 1 8 4 24 4C176 4 200 -20 308 -20C432 -20 484 44 492 152H472C467 84 420 48 344 48C275 48 240 64 104 64C178 82 236 141 248 260L252 304H436L440 344H256L268 452C280 569 334 612 404 612C416 612 431 608 444 600C430 586 424 565 424 552C424 528 444 504 476 504C512 504 528 528 528 564C528 600 480 636 404 636C268 636 184 571 168 428L159 344H80Z" glyph-name="sterling.PPF" horiz-adv-x="528" /><glyph d="M-12 0H420L476 212H452C430 168 387 104 360 76C327 63 268 60 208 60H92L344 316L180 584H296C343 584 405 580 428 572C448 540 464 480 468 444H492L508 628C489 623 452 620 420 620H64L60 600L260 292L-12 20Z" glyph-name="summation" horiz-adv-x="508" unicode="&#8721;" /><glyph d="M28 420H100L69 160C67 140 65 112 65 96C65 29 89 -12 153 -12C217 -12 257 28 277 44V64C253 52 233 44 201 44C165 44 153 68 153 108C153 129 155 154 157 168L187 420H300V456H192L209 600H197L121 588L105 456H28Z" glyph-name="t" horiz-adv-x="292" unicode="t" /><glyph d="M28 420H100L69 160C67 140 65 112 65 96C65 29 89 -12 153 -12C205 -12 253 24 273 40V60C249 48 221 44 201 44C165 44 153 68 153 108C153 129 155 154 157 168L187 420H341L268 -164C264 -192 257 -209 232 -212L200 -216V-240H436V-216L400 -212C357 -207 352 -192 356 -164L429 420H548V456H433L436 476C451 596 488 676 540 680C556 628 584 596 620 596C644 596 664 612 664 640C664 680 616 708 556 708C464 708 368 636 348 476L345 456H192L209 600H197L121 588L105 456H28Z" glyph-name="t_f" horiz-adv-x="512" /><glyph d="M28 420H100L69 160C67 140 65 112 65 96C65 29 89 -12 153 -12C205 -12 253 24 273 40V60C249 48 221 44 201 44C165 44 153 68 153 108C153 129 155 154 157 168L187 420H340L309 160C307 140 305 112 305 96C305 29 329 -12 393 -12C457 -12 509 32 529 48V68C505 56 473 44 441 44C405 44 393 68 393 108C393 129 395 154 397 168L427 420H540V456H432L449 600H437L361 588L345 456H192L209 600H197L121 588L105 456H28Z" glyph-name="t_t" horiz-adv-x="532" /><glyph d="M28 420H100L83 280H12V244H79L69 160C67 140 65 112 65 96C65 29 89 -12 153 -12C217 -12 269 32 289 48V68C265 56 233 44 201 44C165 44 153 68 153 108C153 129 155 154 157 168L166 244H284V280H170L187 420H300V456H192L209 600H197L121 588L105 456H28Z" glyph-name="tbar" horiz-adv-x="292" unicode="&#359;" /><glyph d="M28 420H100L69 160C67 140 65 112 65 96C65 29 89 -12 153 -12C217 -12 269 32 289 48V68C265 56 233 44 201 44C165 44 153 68 153 108C153 129 155 154 157 168L187 420H300V456H192L209 600H197L121 588L105 456H28ZM256 528H288C324 557 364 607 364 664C364 688 348 708 320 708C291 708 272 684 272 656C272 638 284 623 312 620C308 594 281 548 256 528Z" glyph-name="tcaron" horiz-adv-x="292" unicode="&#357;" /><glyph d="M28 420H100L69 160C67 140 65 112 65 96C65 29 89 -12 153 -12C217 -12 257 28 277 44V64C253 52 233 44 201 44C165 44 153 68 153 108C153 129 155 154 157 168L187 420H300V456H192L209 600H197L121 588L105 456H28ZM88 -104C88 -122 100 -137 128 -140C124 -166 97 -212 72 -232H104C140 -203 180 -153 180 -96C180 -72 164 -52 136 -52C107 -52 88 -76 88 -104Z" glyph-name="tcommaaccent" horiz-adv-x="292" unicode="&#355;" /><glyph d="M32 -164C28 -192 21 -208 -4 -212L-36 -216V-240H200V-216L164 -212C121 -207 116 -192 120 -164L140 -4C155 -9 173 -12 192 -12C336 -12 440 112 440 308C440 424 384 472 320 472C261 472 216 421 190 385L232 708H228C208 700 186 695 160 692L76 680V660L108 652C132 646 135 636 132 616ZM280 408C320 408 348 384 348 296C348 128 280 24 176 24H144L188 368C213 390 250 408 280 408Z" glyph-name="thorn" horiz-adv-x="472" unicode="&#254;" /><glyph d="M24 84C24 20 116 -12 188 -12C344 -12 456 68 456 200C456 290 381 336 300 344C386 366 460 420 460 512C460 586 400 636 308 636C204 636 115 580 108 464H128C133 536 196 576 260 576C328 576 364 546 364 488C364 328 184 332 164 332L160 300C178 306 199 308 212 308C289 308 348 276 348 200C348 68 267 12 188 12C164 12 143 20 132 32L124 80C119 110 108 136 72 136C48 136 24 120 24 84Z" glyph-name="three" horiz-adv-x="528" unicode="3" /><glyph d="M0 84C0 20 92 -12 164 -12C320 -12 432 68 432 200C432 290 357 336 276 344C362 366 436 420 436 512C436 586 376 636 284 636C180 636 91 580 84 464H104C109 536 172 576 236 576C304 576 340 546 340 488C340 328 160 332 140 332L136 300C154 306 175 308 188 308C265 308 324 276 324 200C324 68 243 12 164 12C140 12 119 20 108 32L100 80C95 110 84 136 48 136C24 136 0 120 0 84Z" glyph-name="three.PPF" horiz-adv-x="480" /><glyph d="M43 -40C10 -40 -1 -67 -1 -94C-1 -152 76 -184 148 -184C284 -184 410 -94 410 40C410 129 344 168 276 176C358 210 424 274 424 356C424 431 360 480 268 480C178 480 92 414 92 312H112C122 396 183 432 240 432C288 432 332 408 332 346C332 238 252 172 148 164L146 132C158 140 181 144 196 144C268 144 312 107 312 36C312 -80 254 -164 156 -164C129 -164 113 -157 104 -144L91 -96C83 -65 74 -40 43 -40Z" glyph-name="three.TOSF" horiz-adv-x="528" /><glyph d="M-1 45C-1 10 55 -6 96 -6C191 -6 253 36 253 101C253 142 219 165 179 173C221 187 256 215 256 254C256 296 215 320 161 320C102 320 52 290 50 227H62C65 261 99 279 132 279C170 279 189 265 189 240C189 177 102 171 80 171L77 146C86 149 98 150 105 150C148 150 179 134 179 100C179 43 138 16 96 16C83 16 70 19 64 24V21L59 46C54 63 46 76 28 76C12 76 -1 66 -1 45Z" glyph-name="three.denominator" horiz-adv-x="304" /><glyph d="M136 302C231 302 293 344 293 409C293 450 259 473 219 481C261 495 296 523 296 562C296 604 255 628 201 628C142 628 92 598 90 535H102C105 569 139 587 172 587C210 587 229 573 229 548C229 485 142 479 120 479L117 454C126 457 138 458 145 458C188 458 219 442 219 408C219 351 178 324 136 324C123 324 110 327 104 332V329L99 354C94 371 86 384 68 384C52 384 39 374 39 353C39 318 95 302 136 302Z" glyph-name="three.numerator" horiz-adv-x="304" /><glyph d="M7 -40C-26 -40 -37 -67 -37 -94C-37 -152 40 -184 112 -184C248 -184 374 -94 374 40C374 129 308 168 240 176C322 210 388 274 388 356C388 431 324 480 232 480C142 480 56 414 56 312H76C86 396 147 432 204 432C252 432 296 408 296 346C296 238 216 172 112 164L110 132C122 140 145 144 160 144C232 144 276 107 276 36C276 -80 218 -164 120 -164C93 -164 77 -157 68 -144L55 -96C47 -65 38 -40 7 -40Z" glyph-name="three.oldstyle" horiz-adv-x="440" /><glyph d="M136 302C231 302 293 344 293 409C293 450 259 473 219 481C261 495 296 523 296 562C296 604 255 628 201 628C142 628 92 598 90 535H102C105 569 139 587 172 587C210 587 229 573 229 548C229 485 142 479 120 479L117 454C126 457 138 458 145 458C188 458 219 442 219 408C219 351 178 324 136 324C123 324 110 327 104 332V329L99 354C94 371 86 384 68 384C52 384 39 374 39 353C39 318 95 302 136 302ZM137 0 632 620H584L89 0ZM413 0H607L610 22L579 26C555 29 553 33 555 42L561 87H619L622 120H566L595 320H585C576 314 554 308 538 306L344 106L342 87H491L485 43C484 33 477 29 450 26L416 22ZM396 120 514 245 496 120Z" glyph-name="threequarters" horiz-adv-x="660" unicode="&#190;" /><glyph d="M136 302C231 302 293 344 293 409C293 450 259 473 219 481C261 495 296 523 296 562C296 604 255 628 201 628C142 628 92 598 90 535H102C105 569 139 587 172 587C210 587 229 573 229 548C229 485 142 479 120 479L117 454C126 457 138 458 145 458C188 458 219 442 219 408C219 351 178 324 136 324C123 324 110 327 104 332V329L99 354C94 371 86 384 68 384C52 384 39 374 39 353C39 318 95 302 136 302Z" glyph-name="threesuperior" horiz-adv-x="304" unicode="&#179;" /><glyph d="M164 540H180C183 568 200 592 224 592C264 592 280 536 328 536C372 536 396 580 400 640H384C381 612 364 588 340 588C300 588 284 644 236 644C192 644 168 600 164 540Z" glyph-name="tilde" horiz-adv-x="476" unicode="&#732;" /><glyph d="M316 312H425L427 326L409 329C390 332 383 337 385 351L410 549L483 320H491L627 549L602 348C600 334 597 330 578 328L565 326L563 312H702L704 326L690 328C672 330 668 334 670 348L700 584C701 598 705 602 724 604L737 606L739 620H645L524 413L458 620H355L353 608L365 604C381 598 389 592 389 579L360 353C358 340 355 332 337 329L318 326ZM86 312H238L240 326L222 328C204 330 198 334 200 348L232 602H246C256 602 278 602 295 594C306 582 310 563 315 535H327L333 626C325 622 311 620 293 620H108C90 620 75 622 68 626L54 535H66C77 563 84 582 98 594C117 602 141 602 151 602H163L131 348C129 334 125 330 106 328L88 326Z" glyph-name="trademark" horiz-adv-x="711" unicode="&#8482;" /><glyph d="M4 0H404L484 208H468L396 112C379 89 360 80 332 80H104L288 220C374 286 464 372 464 484C464 572 409 636 296 636C147 636 69 519 84 416H104C108 512 176 576 256 576C320 576 360 548 360 476C359 350 272 274 200 204L4 12Z" glyph-name="two" horiz-adv-x="528" unicode="2" /><glyph d="M-12 0H388L468 208H452L380 112C363 89 344 80 316 80H88L272 220C358 286 448 372 448 484C448 572 393 636 280 636C131 636 53 519 68 416H88C92 512 160 576 240 576C304 576 344 548 344 476C343 350 256 274 184 204L-12 12Z" glyph-name="two.PPF" horiz-adv-x="496" /><glyph d="M32 0H388L460 172H444L372 80C365 72 359 68 348 68H132L206 120C296 182 412 254 412 362C412 437 355 480 268 480C168 480 90 405 90 312C90 307 91 301 92 296H112C112 365 154 428 232 428C283 428 316 398 316 348C316 252 225 181 164 128L36 16Z" glyph-name="two.TOSF" horiz-adv-x="528" /><glyph d="M-6 0H222L269 110H256L217 66C209 58 197 52 183 52H68L157 109C204 139 261 182 261 241C261 287 224 320 157 320C76 320 27 265 35 205H48C50 251 89 279 130 279C169 279 189 265 189 236C187 179 140 137 103 107L-6 16Z" glyph-name="two.denominator" horiz-adv-x="304" /><glyph d="M34 308H262L309 418H296L257 374C249 366 237 360 223 360H108L197 417C244 447 301 490 301 549C301 595 264 628 197 628C116 628 67 573 75 513H88C90 559 129 587 170 587C209 587 229 573 229 544C227 487 180 445 143 415L34 324Z" glyph-name="two.numerator" horiz-adv-x="304" /><glyph d="M-12 0H344L416 172H400L328 80C321 72 315 68 304 68H88L162 120C252 182 368 254 368 362C368 437 311 480 224 480C124 480 46 405 46 312C46 307 47 301 48 296H68C68 365 110 428 188 428C239 428 272 398 272 348C272 252 181 181 120 128L-8 16Z" glyph-name="two.oldstyle" horiz-adv-x="452" /><glyph d="M34 308H262L309 418H296L257 374C249 366 237 360 223 360H108L197 417C244 447 301 490 301 549C301 595 264 628 197 628C116 628 67 573 75 513H88C90 559 129 587 170 587C209 587 229 573 229 544C227 487 180 445 143 415L34 324Z" glyph-name="twosuperior" horiz-adv-x="304" unicode="&#178;" /><glyph d="M64 68C64 20 92 -12 148 -12C221 -12 269 37 305 94C304 86 304 77 304 72C304 12 332 -12 380 -12C436 -12 472 20 484 32V48C468 40 448 32 424 32C400 32 391 44 391 72C391 88 394 116 396 128L432 396L444 472L352 452L308 124L306 113C278 80 237 52 196 52C164 52 151 69 156 112L188 380C196 448 176 468 136 468C96 468 56 456 32 448V432L68 424C96 418 104 410 100 380L68 112C67 104 64 80 64 68Z" glyph-name="u" horiz-adv-x="499" unicode="u" /><glyph d="M64 68C64 20 92 -12 148 -12C221 -12 269 37 305 94C304 86 304 77 304 72C304 12 332 -12 380 -12C436 -12 472 20 484 32V48C468 40 448 32 424 32C400 32 391 44 391 72C391 88 394 116 396 128L432 396L444 472L352 452L308 124L306 113C278 80 237 52 196 52C164 52 151 69 156 112L188 380C196 448 176 468 136 468C96 468 56 456 32 448V432L68 424C96 418 104 410 100 380L68 112C67 104 64 80 64 68ZM250 536H270L380 608C401 622 414 634 414 652C414 666 401 676 386 676C371 676 359 669 338 644Z" glyph-name="uacute" horiz-adv-x="499" unicode="&#250;" /><glyph d="M64 68C64 20 92 -12 148 -12C221 -12 269 37 305 94C304 86 304 77 304 72C304 12 332 -12 380 -12C436 -12 472 20 484 32V48C468 40 448 32 424 32C400 32 391 44 391 72C391 88 394 116 396 128L432 396L444 472L352 452L308 124L306 113C278 80 237 52 196 52C164 52 151 69 156 112L188 380C196 448 176 468 136 468C96 468 56 456 32 448V432L68 424C96 418 104 410 100 380L68 112C67 104 64 80 64 68ZM286 536C358 536 395 584 402 640H390C386 608 350 576 290 576C230 576 202 608 206 640H194C187 584 214 536 286 536Z" glyph-name="ubreve" horiz-adv-x="499" unicode="&#365;" /><glyph d="M64 68C64 20 92 -12 148 -12C221 -12 269 37 305 94C304 86 304 77 304 72C304 12 332 -12 380 -12C436 -12 472 20 484 32V48C468 40 448 32 424 32C400 32 391 44 391 72C391 88 394 116 396 128L432 396L444 472L352 452L308 124L306 113C278 80 237 52 196 52C164 52 151 69 156 112L188 380C196 448 176 468 136 468C96 468 56 456 32 448V432L68 424C96 418 104 410 100 380L68 112C67 104 64 80 64 68ZM170 536H186L294 600H298L386 536H402L310 668H298Z" glyph-name="ucircumflex" horiz-adv-x="499" unicode="&#251;" /><glyph d="M64 68C64 20 92 -12 148 -12C221 -12 269 37 305 94C304 86 304 77 304 72C304 12 332 -12 380 -12C436 -12 472 20 484 32V48C468 40 448 32 424 32C400 32 391 44 391 72C391 88 394 116 396 128L432 396L444 472L352 452L308 124L306 113C278 80 237 52 196 52C164 52 151 69 156 112L188 380C196 448 176 468 136 468C96 468 56 456 32 448V432L68 424C96 418 104 410 100 380L68 112C67 104 64 80 64 68ZM210 536C236 536 262 555 262 588C262 611 244 624 222 624C196 624 170 605 170 572C170 549 188 536 210 536ZM362 536C388 536 414 555 414 588C414 611 396 624 374 624C348 624 322 605 322 572C322 549 340 536 362 536Z" glyph-name="udieresis" horiz-adv-x="499" unicode="&#252;" /><glyph d="M64 68C64 20 92 -12 148 -12C221 -12 269 37 305 94C304 86 304 77 304 72C304 12 332 -12 380 -12C436 -12 472 20 484 32V48C468 40 448 32 424 32C400 32 391 44 391 72C391 88 394 116 396 128L432 396L444 472L352 452L308 124L306 113C278 80 237 52 196 52C164 52 151 69 156 112L188 380C196 448 176 468 136 468C96 468 56 456 32 448V432L68 424C96 418 104 410 100 380L68 112C67 104 64 80 64 68ZM302 536H318L258 644C244 669 232 676 218 676C202 676 190 664 190 648C190 634 197 624 212 612Z" glyph-name="ugrave" horiz-adv-x="499" unicode="&#249;" /><glyph d="M64 68C64 20 92 -12 148 -12C221 -12 269 37 305 94C304 86 304 77 304 72C304 12 332 -12 380 -12C436 -12 472 20 484 32V48C468 40 448 32 424 32C400 32 391 44 391 72C391 88 394 116 396 128L432 396L444 472L352 452L308 124L306 113C278 80 237 52 196 52C164 52 151 69 156 112L188 380C196 448 176 468 136 468C96 468 56 456 32 448V432L68 424C96 418 104 410 100 380L68 112C67 104 64 80 64 68ZM190 536H206L326 600C349 612 358 627 358 641C358 658 345 664 332 664C318 664 307 658 282 632ZM334 536H350L470 600C493 612 502 627 502 641C502 658 489 664 476 664C462 664 451 658 426 632Z" glyph-name="uhungarumlaut" horiz-adv-x="499" unicode="&#369;" /><glyph d="M64 68C64 20 92 -12 148 -12C221 -12 269 37 305 94C304 86 304 77 304 72C304 12 332 -12 380 -12C436 -12 472 20 484 32V48C468 40 448 32 424 32C400 32 391 44 391 72C391 88 394 116 396 128L432 396L444 472L352 452L308 124L306 113C278 80 237 52 196 52C164 52 151 69 156 112L188 380C196 448 176 468 136 468C96 468 56 456 32 448V432L68 424C96 418 104 410 100 380L68 112C67 104 64 80 64 68ZM178 536H394L398 580H182Z" glyph-name="umacron" horiz-adv-x="499" unicode="&#363;" /><glyph d="M-3 -87 -9 -136H490L496 -87Z" glyph-name="underscore" horiz-adv-x="500" unicode="_" /><glyph d="M100 0H223L166 -68C218 -76 246 -88 246 -116C246 -147 223 -164 182 -164C158 -164 133 -156 118 -148V-168C133 -176 154 -184 186 -184C247 -184 302 -166 302 -108C302 -66 258 -43 210 -36L239 0H364L368 24L332 28C293 32 284 44 288 72L354 588H380C400 588 446 588 480 572C501 548 507 508 516 452H540L552 632C535 624 508 620 472 620H144C108 620 79 624 64 632L36 452H60C83 508 97 548 124 572C162 588 212 588 232 588H258L192 72C188 44 181 33 140 28L104 24Z" glyph-name="uni021A" horiz-adv-x="524" unicode="&#538;" /><glyph d="M84 -68C136 -76 164 -88 164 -116C164 -147 141 -164 100 -164C76 -164 51 -156 36 -148V-168C51 -176 72 -184 104 -184C165 -184 220 -166 220 -108C220 -66 176 -43 128 -36L147 -12H153C217 -12 257 28 277 44V64C253 52 233 44 201 44C165 44 153 68 153 108C153 129 155 154 157 168L187 420H300V456H192L209 600H197L121 588L105 456H28V420H100L69 160C67 140 65 112 65 96C65 36 84 -2 132 -10Z" glyph-name="uni021B" horiz-adv-x="292" unicode="&#539;" /><glyph d="M61 308H276L280 330C278 330 242 334 239 334C216 337 210 340 212 350L252 628H239L85 552L89 533L169 559L139 351C138 341 132 337 106 334L65 330ZM133 0 628 620H580L85 0ZM355 45C355 10 411 -6 452 -6C547 -6 609 36 609 101C609 142 575 165 535 173C577 187 612 215 612 254C612 296 571 320 517 320C458 320 408 290 406 227H418C421 261 455 279 488 279C526 279 545 265 545 240C545 177 458 171 436 171L433 146C442 149 454 150 461 150C504 150 535 134 535 100C535 43 494 16 452 16C439 16 426 19 420 24V21L415 46C410 63 402 76 384 76C368 76 355 66 355 45Z" glyph-name="uni2153" horiz-adv-x="660" unicode="&#8531;" /><glyph d="M34 308H262L309 418H296L257 374C249 366 237 360 223 360H108L197 417C244 447 301 490 301 549C301 595 264 628 197 628C116 628 67 573 75 513H88C90 559 129 587 170 587C209 587 229 573 229 544C227 487 180 445 143 415L34 324ZM133 0 628 620H580L85 0ZM355 45C355 10 411 -6 452 -6C547 -6 609 36 609 101C609 142 575 165 535 173C577 187 612 215 612 254C612 296 571 320 517 320C458 320 408 290 406 227H418C421 261 455 279 488 279C526 279 545 265 545 240C545 177 458 171 436 171L433 146C442 149 454 150 461 150C504 150 535 134 535 100C535 43 494 16 452 16C439 16 426 19 420 24V21L415 46C410 63 402 76 384 76C368 76 355 66 355 45Z" glyph-name="uni2154" horiz-adv-x="660" unicode="&#8532;" /><glyph d="M355 45C355 9 414 -6 454 -6C545 -6 611 37 611 112C611 167 564 203 495 203C465 203 439 194 424 184C431 200 442 236 445 257H610L631 312H433C422 240 403 183 386 150H402C418 162 442 173 470 173C514 173 535 150 535 111C535 52 500 16 454 16C440 16 426 19 418 24V21L414 46C410 64 401 76 383 76C369 76 355 65 355 45ZM133 0 628 620H580L85 0ZM61 308H276L280 330C278 330 242 334 239 334C216 337 210 340 212 350L252 628H239L85 552L89 533L169 559L139 351C138 341 132 337 106 334L65 330Z" glyph-name="uni2155" horiz-adv-x="660" unicode="&#8533;" /><glyph d="M355 45C355 9 414 -6 454 -6C545 -6 611 37 611 112C611 167 564 203 495 203C465 203 439 194 424 184C431 200 442 236 445 257H610L631 312H433C422 240 403 183 386 150H402C418 162 442 173 470 173C514 173 535 150 535 111C535 52 500 16 454 16C440 16 426 19 418 24V21L414 46C410 64 401 76 383 76C369 76 355 65 355 45ZM34 308H262L309 418H296L257 374C249 366 237 360 223 360H108L197 417C244 447 301 490 301 549C301 595 264 628 197 628C116 628 67 573 75 513H88C90 559 129 587 170 587C209 587 229 573 229 544C227 487 180 445 143 415L34 324ZM129 0 624 620H576L81 0Z" glyph-name="uni2156" horiz-adv-x="660" unicode="&#8534;" /><glyph d="M355 45C355 9 414 -6 454 -6C545 -6 611 37 611 112C611 167 564 203 495 203C465 203 439 194 424 184C431 200 442 236 445 257H610L631 312H433C422 240 403 183 386 150H402C418 162 442 173 470 173C514 173 535 150 535 111C535 52 500 16 454 16C440 16 426 19 418 24V21L414 46C410 64 401 76 383 76C369 76 355 65 355 45ZM136 302C231 302 293 344 293 409C293 450 259 473 219 481C261 495 296 523 296 562C296 604 255 628 201 628C142 628 92 598 90 535H102C105 569 139 587 172 587C210 587 229 573 229 548C229 485 142 479 120 479L117 454C126 457 138 458 145 458C188 458 219 442 219 408C219 351 178 324 136 324C123 324 110 327 104 332V329L99 354C94 371 86 384 68 384C52 384 39 374 39 353C39 318 95 302 136 302ZM117 0 612 620H564L69 0Z" glyph-name="uni2157" horiz-adv-x="660" unicode="&#8535;" /><glyph d="M97 308H291L294 330L263 334C239 337 237 341 239 350L245 395H303L306 428H250L279 628H269C260 622 238 616 222 614L28 414L26 395H175L169 351C168 341 161 337 134 334L100 330ZM355 45C355 9 414 -6 454 -6C545 -6 611 37 611 112C611 167 564 203 495 203C465 203 439 194 424 184C431 200 442 236 445 257H610L631 312H433C422 240 403 183 386 150H402C418 162 442 173 470 173C514 173 535 150 535 111C535 52 500 16 454 16C440 16 426 19 418 24V21L414 46C410 64 401 76 383 76C369 76 355 65 355 45ZM141 0 636 620H588L93 0ZM80 428 198 553 180 428Z" glyph-name="uni2158" horiz-adv-x="660" unicode="&#8536;" /><glyph d="M61 308H276L280 330C278 330 242 334 239 334C216 337 210 340 212 350L252 628H239L85 552L89 533L169 559L139 351C138 341 132 337 106 334L65 330ZM137 0 632 620H584L89 0ZM367 114C367 30 421 -6 485 -6C577 -6 628 51 628 115C628 174 588 203 533 203C502 203 473 191 449 168C466 239 509 296 579 296C608 296 626 291 637 284L640 304C628 311 603 320 572 320C464 320 367 244 367 114ZM440 89C440 110 442 131 445 150C459 160 479 167 495 167C536 167 554 146 554 112C554 52 522 16 486 16C453 16 440 41 440 89Z" glyph-name="uni2159" horiz-adv-x="660" unicode="&#8537;" /><glyph d="M367 114C367 30 421 -6 485 -6C577 -6 628 51 628 115C628 174 588 203 533 203C502 203 473 191 449 168C466 239 509 296 579 296C608 296 626 291 637 284L640 304C628 311 603 320 572 320C464 320 367 244 367 114ZM138 302C229 302 295 345 295 420C295 475 248 511 179 511C149 511 123 502 108 492C115 508 126 544 129 565H294L315 620H117C106 548 87 491 70 458H86C102 470 126 481 154 481C198 481 219 458 219 419C219 360 184 324 138 324C124 324 110 327 102 332V329L98 354C94 372 85 384 67 384C53 384 39 373 39 353C39 317 98 302 138 302ZM117 0 612 620H564L69 0ZM440 89C440 110 442 131 445 150C459 160 479 167 495 167C536 167 554 146 554 112C554 52 522 16 486 16C453 16 440 41 440 89Z" glyph-name="uni215A" horiz-adv-x="660" unicode="&#8538;" /><glyph d="M61 308H276L280 330C278 330 242 334 239 334C216 337 210 340 212 350L252 628H239L85 552L89 533L169 559L139 351C138 341 132 337 106 334L65 330ZM133 0 628 620H580L85 0ZM362 66C362 17 413 -6 476 -6C552 -6 617 31 617 98C617 134 594 155 556 172L550 175C592 187 634 207 634 255C634 297 591 320 526 320C460 320 394 290 394 226C394 189 418 169 449 154C404 142 362 115 362 66ZM513 192C487 205 463 218 463 244C463 278 491 301 525 301C555 301 571 282 571 257C571 232 557 203 530 184ZM427 62C427 94 444 128 469 144L491 135C527 119 545 103 545 79C545 39 514 15 476 15C446 15 427 30 427 62Z" glyph-name="uni215B" horiz-adv-x="660" unicode="&#8539;" /><glyph d="M136 302C231 302 293 344 293 409C293 450 259 473 219 481C261 495 296 523 296 562C296 604 255 628 201 628C142 628 92 598 90 535H102C105 569 139 587 172 587C210 587 229 573 229 548C229 485 142 479 120 479L117 454C126 457 138 458 145 458C188 458 219 442 219 408C219 351 178 324 136 324C123 324 110 327 104 332V329L99 354C94 371 86 384 68 384C52 384 39 374 39 353C39 318 95 302 136 302ZM117 0 612 620H564L69 0ZM362 66C362 17 413 -6 476 -6C552 -6 617 31 617 98C617 134 594 155 556 172L550 175C592 187 634 207 634 255C634 297 591 320 526 320C460 320 394 290 394 226C394 189 418 169 449 154C404 142 362 115 362 66ZM513 192C487 205 463 218 463 244C463 278 491 301 525 301C555 301 571 282 571 257C571 232 557 203 530 184ZM427 62C427 94 444 128 469 144L491 135C527 119 545 103 545 79C545 39 514 15 476 15C446 15 427 30 427 62Z" glyph-name="uni215C" horiz-adv-x="660" unicode="&#8540;" /><glyph d="M362 66C362 17 413 -6 476 -6C552 -6 617 31 617 98C617 134 594 155 556 172L550 175C592 187 634 207 634 255C634 297 591 320 526 320C460 320 394 290 394 226C394 189 418 169 449 154C404 142 362 115 362 66ZM138 302C229 302 295 345 295 420C295 475 248 511 179 511C149 511 123 502 108 492C115 508 126 544 129 565H294L315 620H117C106 548 87 491 70 458H86C102 470 126 481 154 481C198 481 219 458 219 419C219 360 184 324 138 324C124 324 110 327 102 332V329L98 354C94 372 85 384 67 384C53 384 39 373 39 353C39 317 98 302 138 302ZM117 0 612 620H564L69 0ZM427 62C427 94 444 128 469 144L491 135C527 119 545 103 545 79C545 39 514 15 476 15C446 15 427 30 427 62ZM513 192C487 205 463 218 463 244C463 278 491 301 525 301C555 301 571 282 571 257C571 232 557 203 530 184Z" glyph-name="uni215D" horiz-adv-x="660" unicode="&#8541;" /><glyph d="M71 308H127L331 607V620H95L74 564H275ZM97 0 592 620H544L49 0ZM362 66C362 17 413 -6 476 -6C552 -6 617 31 617 98C617 134 594 155 556 172L550 175C592 187 634 207 634 255C634 297 591 320 526 320C460 320 394 290 394 226C394 189 418 169 449 154C404 142 362 115 362 66ZM513 192C487 205 463 218 463 244C463 278 491 301 525 301C555 301 571 282 571 257C571 232 557 203 530 184ZM427 62C427 94 444 128 469 144L491 135C527 119 545 103 545 79C545 39 514 15 476 15C446 15 427 30 427 62Z" glyph-name="uni215E" horiz-adv-x="660" unicode="&#8542;" /><glyph d="M262 -124C262 -162 305 -180 354 -180C382 -180 405 -172 418 -164V-144C405 -152 386 -156 370 -156C337 -156 318 -145 318 -116C318 -67 377 -34 423 -5C455 4 475 23 484 32V48C468 40 448 32 424 32C400 32 391 44 391 72C391 88 394 116 396 128L432 396L444 472L352 452L308 124L306 113C278 80 237 52 196 52C164 52 151 69 156 112L188 380C196 448 176 468 136 468C96 468 56 456 32 448V432L68 424C96 418 104 410 100 380L68 112C67 104 64 80 64 68C64 20 92 -12 148 -12C221 -12 269 37 305 94C304 86 304 77 304 72C304 13 331 -11 378 -12C325 -35 262 -71 262 -124Z" glyph-name="uogonek" horiz-adv-x="499" unicode="&#371;" /><glyph d="M64 68C64 20 92 -12 148 -12C221 -12 269 37 305 94C304 86 304 77 304 72C304 12 332 -12 380 -12C436 -12 472 20 484 32V48C468 40 448 32 424 32C400 32 391 44 391 72C391 88 394 116 396 128L432 396L444 472L352 452L308 124L306 113C278 80 237 52 196 52C164 52 151 69 156 112L188 380C196 448 176 468 136 468C96 468 56 456 32 448V432L68 424C96 418 104 410 100 380L68 112C67 104 64 80 64 68ZM286 536C333 536 382 567 382 620C382 659 347 680 306 680C259 680 210 649 210 596C210 557 245 536 286 536ZM290 552C265 552 250 570 250 596C250 633 271 664 302 664C327 664 342 646 342 620C342 583 321 552 290 552Z" glyph-name="uring" horiz-adv-x="499" unicode="&#367;" /><glyph d="M64 68C64 20 92 -12 148 -12C221 -12 269 37 305 94C304 86 304 77 304 72C304 12 332 -12 380 -12C436 -12 472 20 484 32V48C468 40 448 32 424 32C400 32 391 44 391 72C391 88 394 116 396 128L432 396L444 472L352 452L308 124L306 113C278 80 237 52 196 52C164 52 151 69 156 112L188 380C196 448 176 468 136 468C96 468 56 456 32 448V432L68 424C96 418 104 410 100 380L68 112C67 104 64 80 64 68ZM174 540H190C193 568 210 592 234 592C274 592 290 536 338 536C382 536 406 580 410 640H394C391 612 374 588 350 588C310 588 294 644 246 644C202 644 178 600 174 540Z" glyph-name="utilde" horiz-adv-x="499" unicode="&#361;" /><glyph d="M148 -12H168L372 300C399 339 412 372 412 404C412 440 388 468 356 468C324 468 300 444 300 412C300 380 324 360 352 352L220 108L152 408C143 449 132 468 96 468C68 468 28 452 8 444V428L20 424C50 414 55 404 60 380Z" glyph-name="v" horiz-adv-x="414" unicode="v" /><glyph d="M148 -12H168L343 241L400 -12H420L624 300C651 339 664 372 664 404C664 440 640 468 608 468C576 468 552 444 552 412C552 380 576 360 604 352L472 108L404 408C395 449 384 468 348 468C320 468 280 452 260 444V428L272 424C302 414 307 404 312 380L332 289L220 108L152 408C143 449 132 468 96 468C68 468 28 452 8 444V428L20 424C50 414 55 404 60 380Z" glyph-name="w" horiz-adv-x="672" unicode="w" /><glyph d="M148 -12H168L343 241L400 -12H420L624 300C651 339 664 372 664 404C664 440 640 468 608 468C576 468 552 444 552 412C552 380 576 360 604 352L472 108L404 408C395 449 384 468 348 468C320 468 280 452 260 444V428L272 424C302 414 307 404 312 380L332 289L220 108L152 408C143 449 132 468 96 468C68 468 28 452 8 444V428L20 424C50 414 55 404 60 380ZM318 536H338L448 608C469 622 482 634 482 652C482 666 469 676 454 676C439 676 427 669 406 644Z" glyph-name="wacute" horiz-adv-x="672" unicode="&#7811;" /><glyph d="M148 -12H168L343 241L400 -12H420L624 300C651 339 664 372 664 404C664 440 640 468 608 468C576 468 552 444 552 412C552 380 576 360 604 352L472 108L404 408C395 449 384 468 348 468C320 468 280 452 260 444V428L272 424C302 414 307 404 312 380L332 289L220 108L152 408C143 449 132 468 96 468C68 468 28 452 8 444V428L20 424C50 414 55 404 60 380ZM238 536H254L362 600H366L454 536H470L378 668H366Z" glyph-name="wcircumflex" horiz-adv-x="672" unicode="&#373;" /><glyph d="M148 -12H168L343 241L400 -12H420L624 300C651 339 664 372 664 404C664 440 640 468 608 468C576 468 552 444 552 412C552 380 576 360 604 352L472 108L404 408C395 449 384 468 348 468C320 468 280 452 260 444V428L272 424C302 414 307 404 312 380L332 289L220 108L152 408C143 449 132 468 96 468C68 468 28 452 8 444V428L20 424C50 414 55 404 60 380ZM278 536C304 536 330 555 330 588C330 611 312 624 290 624C264 624 238 605 238 572C238 549 256 536 278 536ZM430 536C456 536 482 555 482 588C482 611 464 624 442 624C416 624 390 605 390 572C390 549 408 536 430 536Z" glyph-name="wdieresis" horiz-adv-x="672" unicode="&#7813;" /><glyph d="M148 -12H168L343 241L400 -12H420L624 300C651 339 664 372 664 404C664 440 640 468 608 468C576 468 552 444 552 412C552 380 576 360 604 352L472 108L404 408C395 449 384 468 348 468C320 468 280 452 260 444V428L272 424C302 414 307 404 312 380L332 289L220 108L152 408C143 449 132 468 96 468C68 468 28 452 8 444V428L20 424C50 414 55 404 60 380ZM370 536H386L326 644C312 669 300 676 286 676C270 676 258 664 258 648C258 634 265 624 280 612Z" glyph-name="wgrave" horiz-adv-x="672" unicode="&#7809;" /><glyph d="M0 44C0 8 24 -12 60 -12C124 -12 156 65 184 128L199 161L224 76C244 8 264 -12 316 -12C352 -12 392 12 412 28V56C400 48 380 36 360 36C336 36 322 50 312 84L257 271C281 319 320 388 344 396C356 376 372 360 400 360C428 360 452 380 452 412C452 448 428 468 392 468C332 468 297 399 268 336L250 296L224 384C204 452 184 472 132 472C96 472 56 448 36 432V404C48 412 68 424 88 424C112 424 125 412 136 376L191 187C167 139 132 68 108 60C96 80 80 96 52 96C24 96 0 76 0 44Z" glyph-name="x" horiz-adv-x="452" unicode="x" /><glyph d="M372 300C399 339 412 372 412 404C412 440 388 468 356 468C324 468 300 444 300 412C300 380 324 360 352 352L220 108L152 408C143 449 132 468 96 468C68 468 28 452 8 444V428L20 424C50 414 55 404 60 380L145 2L-24 -240H44L185 15Z" glyph-name="y" horiz-adv-x="420" unicode="y" /><glyph d="M372 300C399 339 412 372 412 404C412 440 388 468 356 468C324 468 300 444 300 412C300 380 324 360 352 352L220 108L152 408C143 449 132 468 96 468C68 468 28 452 8 444V428L20 424C50 414 55 404 60 380L145 2L-24 -240H44L185 15ZM214 532H234L344 604C365 618 378 630 378 648C378 662 365 672 350 672C335 672 323 665 302 640Z" glyph-name="yacute" horiz-adv-x="420" unicode="&#253;" /><glyph d="M372 300C399 339 412 372 412 404C412 440 388 468 356 468C324 468 300 444 300 412C300 380 324 360 352 352L220 108L152 408C143 449 132 468 96 468C68 468 28 452 8 444V428L20 424C50 414 55 404 60 380L145 2L-24 -240H44L185 15ZM134 532H150L258 596H262L350 532H366L274 664H262Z" glyph-name="ycircumflex" horiz-adv-x="420" unicode="&#375;" /><glyph d="M372 300C399 339 412 372 412 404C412 440 388 468 356 468C324 468 300 444 300 412C300 380 324 360 352 352L220 108L152 408C143 449 132 468 96 468C68 468 28 452 8 444V428L20 424C50 414 55 404 60 380L145 2L-24 -240H44L185 15ZM174 532C200 532 226 551 226 584C226 607 208 620 186 620C160 620 134 601 134 568C134 545 152 532 174 532ZM326 532C352 532 378 551 378 584C378 607 360 620 338 620C312 620 286 601 286 568C286 545 304 532 326 532Z" glyph-name="ydieresis" horiz-adv-x="420" unicode="&#255;" /><glyph d="M60 232H216L206 152H48L44 116H201L196 72C193 44 181 33 140 28L104 24V0H372V24L344 28C305 34 292 44 296 72L301 116H456L460 152H306L316 232H472L476 268H321L322 271L512 556C523 572 533 586 556 592L572 596L576 620H408L404 596L440 588C467 582 462 566 448 544L300 304L204 540C191 571 195 583 220 588L260 596L264 620H44L40 596L56 592C74 588 80 575 88 556L206 268H64Z" glyph-name="yen" horiz-adv-x="528" unicode="&#165;" /><glyph d="M77 232H233L223 152H67L63 116H218L213 72C210 44 197 33 156 28L123 24L120 0H388L391 24L360 28C321 33 310 44 313 72L318 116H475L479 152H323L333 232H489L493 268H339L529 556C540 572 550 586 573 592L590 596L593 620H425L422 596L457 588C484 582 481 566 467 544L318 304L223 540C212 571 212 583 237 588L278 596L281 620H61L58 596L73 592C91 588 98 575 105 556L223 268H81Z" glyph-name="yen.PPF" horiz-adv-x="540" /><glyph d="M372 300C399 339 412 372 412 404C412 440 388 468 356 468C324 468 300 444 300 412C300 380 324 360 352 352L220 108L152 408C143 449 132 468 96 468C68 468 28 452 8 444V428L20 424C50 414 55 404 60 380L145 2L-24 -240H44L185 15ZM266 532H282L222 640C208 665 196 672 182 672C166 672 154 660 154 644C154 630 161 620 176 608Z" glyph-name="ygrave" horiz-adv-x="420" unicode="&#7923;" /><glyph d="M8 0H296C312 0 332 -4 340 -8L368 164H348L300 68C288 45 280 36 256 36H112C144 116 376 364 388 448V456H132C116 456 76 456 60 464L36 304H56L92 384C106 411 120 420 148 420H280C248 340 60 136 8 12Z" glyph-name="z" horiz-adv-x="396" unicode="z" /><glyph d="M8 0H296C312 0 332 -4 340 -8L368 164H348L300 68C288 45 280 36 256 36H112C144 116 376 364 388 448V456H132C116 456 76 456 60 464L36 304H56L92 384C106 411 120 420 148 420H280C248 340 60 136 8 12ZM194 536H214L324 608C345 622 358 634 358 652C358 666 345 676 330 676C315 676 303 669 282 644Z" glyph-name="zacute" horiz-adv-x="396" unicode="&#378;" /><glyph d="M8 0H296C312 0 332 -4 340 -8L368 164H348L300 68C288 45 280 36 256 36H112C144 116 376 364 388 448V456H132C116 456 76 456 60 464L36 304H56L92 384C106 411 120 420 148 420H280C248 340 60 136 8 12ZM226 536H238L362 668H346L242 604H238L146 668H130Z" glyph-name="zcaron" horiz-adv-x="396" unicode="&#382;" /><glyph d="M8 0H296C312 0 332 -4 340 -8L368 164H348L300 68C288 45 280 36 256 36H112C144 116 376 364 388 448V456H132C116 456 76 456 60 464L36 304H56L92 384C106 411 120 420 148 420H280C248 340 60 136 8 12ZM230 536C261 536 282 565 282 596C282 621 267 640 242 640C211 640 190 611 190 580C190 555 205 536 230 536Z" glyph-name="zdotaccent" horiz-adv-x="396" unicode="&#380;" /><glyph d="M236 -12C389 -12 512 150 512 376C512 532 439 636 312 636C155 636 36 471 36 244C36 89 112 -12 236 -12ZM236 12C163 12 140 92 140 200C140 408 201 612 312 612C385 612 408 534 408 424C408 226 349 12 236 12Z" glyph-name="zero" horiz-adv-x="528" unicode="0" /><glyph d="M240 -12C393 -12 516 150 516 376C516 532 443 636 316 636C159 636 40 471 40 244C40 89 116 -12 240 -12ZM240 12C167 12 144 92 144 200C144 408 205 612 316 612C389 612 412 534 412 424C412 226 353 12 240 12Z" glyph-name="zero.PPF" horiz-adv-x="540" /><glyph d="M36 180C36 56 112 -12 232 -12C368 -12 488 116 488 288C488 412 412 480 292 480C156 480 36 352 36 180ZM132 168C132 348 212 452 292 452C352 452 392 408 392 304C392 124 312 16 232 16C172 16 132 64 132 168Z" glyph-name="zero.TOSF" horiz-adv-x="528" /><glyph d="M123 -6C219 -6 286 82 286 188C286 269 239 319 167 319C70 319 5 231 5 124C5 43 52 -6 123 -6ZM124 16C90 16 79 49 79 97C79 184 110 298 166 298C201 298 212 264 212 217C212 133 181 16 124 16Z" glyph-name="zero.denominator" horiz-adv-x="304" /><glyph d="M163 302C259 302 326 390 326 496C326 577 279 627 207 627C110 627 45 539 45 432C45 351 92 302 163 302ZM164 324C130 324 119 357 119 405C119 492 150 606 206 606C241 606 252 572 252 525C252 441 221 324 164 324Z" glyph-name="zero.numerator" horiz-adv-x="304" /><glyph d="M36 180C36 56 112 -12 232 -12C368 -12 488 116 488 288C488 412 412 480 292 480C156 480 36 352 36 180ZM132 168C132 348 212 452 292 452C352 452 392 408 392 304C392 124 312 16 232 16C172 16 132 64 132 168Z" glyph-name="zero.oldstyle" horiz-adv-x="524" /></font>
</defs>
</svg>
