<?xml version="1.0" standalone="no"?><!DOCTYPE svg PUBLIC "-//W3C//DTD SVG 1.1//EN" "http://www.w3.org/Graphics/SVG/1.1/DTD/svg11.dtd" ><svg version="1.1" xmlns="http://www.w3.org/2000/svg"><defs><font horiz-adv-x="0" id="font"><font-face ascent="728" bbox="-208 -272 1132 900" cap-height="708" descent="-272" font-family="Arnhem Display Pro" font-stretch="normal" font-style="normal" font-weight="400" units-per-em="1000" x-height="456" /><missing-glyph horiz-adv-x="500" /><glyph d="M8 0H176V24L148 28C117 32 110 50 120 80L158 192H356L396 84C409 48 405 34 368 28L340 24V0H560V24L544 28C523 33 515 46 504 76L304 620H264L76 92C60 48 48 34 24 28L8 24ZM254 474 342 232H171Z" glyph-name="A" horiz-adv-x="568" unicode="A" /><glyph d="M0 0H176V24L144 28C124 31 120 36 120 48C120 56 133 82 140 96L202 224H372V72C372 44 364 33 328 28L300 24V0H732L764 184H740C724 128 692 72 664 48C636 32 584 32 560 32C536 32 499 31 472 42V296H568C592 276 604 240 612 200H632V432H612C604 392 592 356 568 336H472V578C499 588 535 588 556 588C576 588 624 588 660 572C684 548 696 508 712 452H736L728 632C712 624 684 620 648 620H352L88 92C67 50 48 36 16 28L0 24ZM221 264 372 575V264Z" glyph-name="AE" horiz-adv-x="788" unicode="&#198;" /><glyph d="M0 0H176V24L144 28C124 31 120 36 120 48C120 56 133 82 140 96L202 224H372V72C372 44 364 33 328 28L300 24V0H732L764 184H740C724 128 692 72 664 48C636 32 584 32 560 32C536 32 499 31 472 42V296H568C592 276 604 240 612 200H632V432H612C604 392 592 356 568 336H472V578C499 588 535 588 556 588C576 588 624 588 660 572C684 548 696 508 712 452H736L728 632C712 624 684 620 648 620H352L88 92C67 50 48 36 16 28L0 24ZM221 264 372 575V264ZM416 684H432L536 756C554 769 564 780 564 796C564 812 552 824 536 824C522 824 509 817 492 792Z" glyph-name="AEacute" horiz-adv-x="788" unicode="&#508;" /><glyph d="M8 0H176V24L148 28C117 32 110 50 120 80L158 192H356L396 84C409 48 405 34 368 28L340 24V0H560V24L544 28C523 33 515 46 504 76L304 620H264L76 92C60 48 48 34 24 28L8 24ZM254 474 342 232H171ZM276 684H292L396 756C414 769 424 780 424 796C424 812 412 824 396 824C382 824 369 817 352 792Z" glyph-name="Aacute" horiz-adv-x="568" unicode="&#193;" /><glyph d="M8 0H176V24L148 28C117 32 110 50 120 80L158 192H356L396 84C409 48 405 34 368 28L340 24V0H560V24L544 28C523 33 515 46 504 76L304 620H264L76 92C60 48 48 34 24 28L8 24ZM254 474 342 232H171ZM284 684C356 684 388 732 388 788H376C376 756 344 724 284 724C224 724 192 756 192 788H180C180 732 212 684 284 684Z" glyph-name="Abreve" horiz-adv-x="568" unicode="&#258;" /><glyph d="M8 0H176V24L148 28C117 32 110 50 120 80L158 192H356L396 84C409 48 405 34 368 28L340 24V0H560V24L544 28C523 33 515 46 504 76L304 620H264L76 92C60 48 48 34 24 28L8 24ZM254 474 342 232H171ZM166 684H182L282 748H286L382 684H398L290 816H278Z" glyph-name="Acircumflex" horiz-adv-x="568" unicode="&#194;" /><glyph d="M8 0H176V24L148 28C117 32 110 50 120 80L158 192H356L396 84C409 48 405 34 368 28L340 24V0H560V24L544 28C523 33 515 46 504 76L304 620H264L76 92C60 48 48 34 24 28L8 24ZM254 474 342 232H171ZM356 684C380 684 400 700 400 728C400 756 380 772 356 772C332 772 312 756 312 728C312 700 332 684 356 684ZM212 684C236 684 256 700 256 728C256 756 236 772 212 772C188 772 168 756 168 728C168 700 188 684 212 684Z" glyph-name="Adieresis" horiz-adv-x="568" unicode="&#196;" /><glyph d="M8 0H176V24L148 28C117 32 110 50 120 80L158 192H356L396 84C409 48 405 34 368 28L340 24V0H560V24L544 28C523 33 515 46 504 76L304 620H264L76 92C60 48 48 34 24 28L8 24ZM254 474 342 232H171ZM272 684H288L212 792C194 816 182 824 168 824C152 824 140 812 140 796C140 780 150 769 168 756Z" glyph-name="Agrave" horiz-adv-x="568" unicode="&#192;" /><glyph d="M8 0H176V24L148 28C117 32 110 50 120 80L158 192H356L396 84C409 48 405 34 368 28L340 24V0H560V24L544 28C523 33 515 46 504 76L304 620H264L76 92C60 48 48 34 24 28L8 24ZM254 474 342 232H171ZM176 684H392V728H176Z" glyph-name="Amacron" horiz-adv-x="568" unicode="&#256;" /><glyph d="M8 0H176V24L148 28C117 32 110 50 120 80L158 192H356L396 84C409 48 405 34 368 28L340 24V0H507C460 -22 376 -67 376 -116C376 -164 424 -184 476 -184C504 -184 524 -176 536 -168V-148C524 -156 504 -160 488 -160C452 -160 432 -144 432 -108C432 -62 490 -27 530 0H560V24L544 28C523 33 515 46 504 76L304 620H264L76 92C60 48 48 34 24 28L8 24ZM254 474 342 232H171Z" glyph-name="Aogonek" horiz-adv-x="568" unicode="&#260;" /><glyph d="M8 0H176V24L148 28C117 32 110 50 120 80L158 192H356L396 84C409 48 405 34 368 28L340 24V0H560V24L544 28C523 33 515 46 504 76L304 620H264L76 92C60 48 48 34 24 28L8 24ZM254 474 342 232H171ZM284 684C328 684 368 712 368 756C368 800 328 828 284 828C240 828 200 800 200 756C200 712 240 684 284 684ZM284 700C256 700 240 724 240 756C240 788 256 812 284 812C312 812 328 788 328 756C328 724 312 700 284 700Z" glyph-name="Aring" horiz-adv-x="568" unicode="&#197;" /><glyph d="M8 0H176V24L148 28C117 32 110 50 120 80L158 192H356L396 84C409 48 405 34 368 28L340 24V0H560V24L544 28C523 33 515 46 504 76L304 620H264L76 92C60 48 48 34 24 28L8 24ZM254 474 342 232H171ZM170 688H186C186 716 198 740 226 740C262 740 286 684 326 684C378 684 398 736 398 788H382C382 760 370 736 342 736C306 736 282 792 242 792C190 792 170 740 170 688Z" glyph-name="Atilde" horiz-adv-x="568" unicode="&#195;" /><glyph d="M20 0H272C404 0 488 64 488 176C488 268 412 320 316 328C392 344 464 400 464 480C464 576 380 620 252 620H20V596L48 592C84 587 92 576 92 548V72C92 44 84 33 48 28L20 24ZM228 300C324 300 384 256 384 168C384 72 332 32 252 32C241 32 216 32 192 39V300ZM248 588C316 588 364 556 364 472C364 388 312 336 232 336H192V580C215 588 237 588 248 588Z" glyph-name="B" horiz-adv-x="516" unicode="B" /><glyph d="M36 316C36 104 168 -12 340 -12C412 -12 468 4 516 24L552 192H524C508 144 480 80 456 52C428 32 400 16 340 16C244 16 148 112 148 316C148 500 228 608 348 608C400 608 440 592 468 564C492 532 504 496 516 436H544L536 628H516L500 604C460 624 408 636 348 636C192 636 36 528 36 316Z" glyph-name="C" horiz-adv-x="580" unicode="C" /><glyph d="M36 316C36 104 168 -12 340 -12C412 -12 468 4 516 24L552 192H524C508 144 480 80 456 52C428 32 400 16 340 16C244 16 148 112 148 316C148 500 228 608 348 608C400 608 440 592 468 564C492 532 504 496 516 436H544L536 628H516L500 604C460 624 408 636 348 636C192 636 36 528 36 316ZM292 684H308L412 756C430 769 440 780 440 796C440 812 428 824 412 824C398 824 385 817 368 792Z" glyph-name="Cacute" horiz-adv-x="580" unicode="&#262;" /><glyph d="M36 316C36 104 168 -12 340 -12C412 -12 468 4 516 24L552 192H524C508 144 480 80 456 52C428 32 400 16 340 16C244 16 148 112 148 316C148 500 228 608 348 608C400 608 440 592 468 564C492 532 504 496 516 436H544L536 628H516L500 604C460 624 408 636 348 636C192 636 36 528 36 316ZM330 684H342L450 816H434L338 752H334L234 816H218Z" glyph-name="Ccaron" horiz-adv-x="580" unicode="&#268;" /><glyph d="M284 -68C340 -76 372 -88 372 -120C372 -148 352 -164 312 -164C288 -164 264 -156 248 -148V-168C264 -176 288 -184 320 -184C380 -184 428 -164 428 -112C428 -64 376 -44 324 -37L342 -12C413 -11 468 4 516 24L552 192H524C508 144 480 80 456 52C428 32 400 16 340 16C244 16 148 112 148 316C148 500 228 608 348 608C400 608 440 592 468 564C492 532 504 496 516 436H544L536 628H516L500 604C460 624 408 636 348 636C192 636 36 528 36 316C36 111 159 -4 322 -11Z" glyph-name="Ccedilla" horiz-adv-x="580" unicode="&#199;" /><glyph d="M36 316C36 104 168 -12 340 -12C412 -12 468 4 516 24L552 192H524C508 144 480 80 456 52C428 32 400 16 340 16C244 16 148 112 148 316C148 500 228 608 348 608C400 608 440 592 468 564C492 532 504 496 516 436H544L536 628H516L500 604C460 624 408 636 348 636C192 636 36 528 36 316ZM218 684H234L334 748H338L434 684H450L342 816H330Z" glyph-name="Ccircumflex" horiz-adv-x="580" unicode="&#264;" /><glyph d="M36 316C36 104 168 -12 340 -12C412 -12 468 4 516 24L552 192H524C508 144 480 80 456 52C428 32 400 16 340 16C244 16 148 112 148 316C148 500 228 608 348 608C400 608 440 592 468 564C492 532 504 496 516 436H544L536 628H516L500 604C460 624 408 636 348 636C192 636 36 528 36 316ZM336 684C364 684 384 708 384 736C384 764 364 788 336 788C308 788 288 764 288 736C288 708 308 684 336 684Z" glyph-name="Cdotaccent" horiz-adv-x="580" unicode="&#266;" /><glyph d="M20 0H276C444 0 596 96 596 304C596 492 472 620 260 620H20V596L48 592C84 587 92 576 92 548V72C92 44 84 33 48 28L20 24ZM260 588C420 588 488 496 488 304C488 116 400 32 268 32C247 32 220 32 192 42V576C217 585 243 588 260 588Z" glyph-name="D" horiz-adv-x="628" unicode="D" /><glyph d="M20 0H276C444 0 596 96 596 304C596 492 472 620 260 620H20V596L48 592C84 587 92 576 92 548V72C92 44 84 33 48 28L20 24ZM260 588C420 588 488 496 488 304C488 116 400 32 268 32C247 32 220 32 192 42V576C217 585 243 588 260 588ZM278 684H290L398 816H382L286 752H282L182 816H166Z" glyph-name="Dcaron" horiz-adv-x="628" unicode="&#270;" /><glyph d="M24 300H92V72C92 44 84 33 48 28L20 24V0H276C444 0 596 96 596 304C596 492 472 620 260 620H20V596L48 592C84 587 92 576 92 548V336H24ZM260 588C420 588 488 496 488 304C488 116 400 32 268 32C247 32 220 32 192 42V300H312V336H192V576C217 585 243 588 260 588Z" glyph-name="Dcroat" horiz-adv-x="628" unicode="&#272;" /><glyph d="M20 0H512L276 636H252ZM232 476 393 40H85Z" glyph-name="Delta" horiz-adv-x="552" unicode="&#8710;" /><glyph d="M20 0H452L484 184H460C444 128 412 72 384 48C356 32 304 32 280 32C256 32 219 31 192 42V296H288C312 276 324 240 332 200H352V432H332C324 392 312 356 288 336H192V578C219 588 255 588 276 588C296 588 344 588 380 572C404 548 416 508 432 452H456L448 632C432 624 404 620 368 620H20V596L48 592C84 587 92 576 92 548V72C92 44 84 33 48 28L20 24Z" glyph-name="E" horiz-adv-x="508" unicode="E" /><glyph d="M20 0H452L484 184H460C444 128 412 72 384 48C356 32 304 32 280 32C256 32 219 31 192 42V296H288C312 276 324 240 332 200H352V432H332C324 392 312 356 288 336H192V578C219 588 255 588 276 588C296 588 344 588 380 572C404 548 416 508 432 452H456L448 632C432 624 404 620 368 620H20V596L48 592C84 587 92 576 92 548V72C92 44 84 33 48 28L20 24ZM216 684H232L336 756C354 769 364 780 364 796C364 812 352 824 336 824C322 824 309 817 292 792Z" glyph-name="Eacute" horiz-adv-x="508" unicode="&#201;" /><glyph d="M20 0H452L484 184H460C444 128 412 72 384 48C356 32 304 32 280 32C256 32 219 31 192 42V296H288C312 276 324 240 332 200H352V432H332C324 392 312 356 288 336H192V578C219 588 255 588 276 588C296 588 344 588 380 572C404 548 416 508 432 452H456L448 632C432 624 404 620 368 620H20V596L48 592C84 587 92 576 92 548V72C92 44 84 33 48 28L20 24ZM260 684C332 684 364 732 364 788H352C352 756 320 724 260 724C200 724 168 756 168 788H156C156 732 188 684 260 684Z" glyph-name="Ebreve" horiz-adv-x="508" unicode="&#276;" /><glyph d="M20 0H452L484 184H460C444 128 412 72 384 48C356 32 304 32 280 32C256 32 219 31 192 42V296H288C312 276 324 240 332 200H352V432H332C324 392 312 356 288 336H192V578C219 588 255 588 276 588C296 588 344 588 380 572C404 548 416 508 432 452H456L448 632C432 624 404 620 368 620H20V596L48 592C84 587 92 576 92 548V72C92 44 84 33 48 28L20 24ZM254 684H266L374 816H358L262 752H258L158 816H142Z" glyph-name="Ecaron" horiz-adv-x="508" unicode="&#282;" /><glyph d="M20 0H452L484 184H460C444 128 412 72 384 48C356 32 304 32 280 32C256 32 219 31 192 42V296H288C312 276 324 240 332 200H352V432H332C324 392 312 356 288 336H192V578C219 588 255 588 276 588C296 588 344 588 380 572C404 548 416 508 432 452H456L448 632C432 624 404 620 368 620H20V596L48 592C84 587 92 576 92 548V72C92 44 84 33 48 28L20 24ZM142 684H158L258 748H262L358 684H374L266 816H254Z" glyph-name="Ecircumflex" horiz-adv-x="508" unicode="&#202;" /><glyph d="M20 0H452L484 184H460C444 128 412 72 384 48C356 32 304 32 280 32C256 32 219 31 192 42V296H288C312 276 324 240 332 200H352V432H332C324 392 312 356 288 336H192V578C219 588 255 588 276 588C296 588 344 588 380 572C404 548 416 508 432 452H456L448 632C432 624 404 620 368 620H20V596L48 592C84 587 92 576 92 548V72C92 44 84 33 48 28L20 24ZM332 684C356 684 376 700 376 728C376 756 356 772 332 772C308 772 288 756 288 728C288 700 308 684 332 684ZM188 684C212 684 232 700 232 728C232 756 212 772 188 772C164 772 144 756 144 728C144 700 164 684 188 684Z" glyph-name="Edieresis" horiz-adv-x="508" unicode="&#203;" /><glyph d="M20 0H452L484 184H460C444 128 412 72 384 48C356 32 304 32 280 32C256 32 219 31 192 42V296H288C312 276 324 240 332 200H352V432H332C324 392 312 356 288 336H192V578C219 588 255 588 276 588C296 588 344 588 380 572C404 548 416 508 432 452H456L448 632C432 624 404 620 368 620H20V596L48 592C84 587 92 576 92 548V72C92 44 84 33 48 28L20 24ZM260 684C288 684 308 708 308 736C308 764 288 788 260 788C232 788 212 764 212 736C212 708 232 684 260 684Z" glyph-name="Edotaccent" horiz-adv-x="508" unicode="&#278;" /><glyph d="M20 0H452L484 184H460C444 128 412 72 384 48C356 32 304 32 280 32C256 32 219 31 192 42V296H288C312 276 324 240 332 200H352V432H332C324 392 312 356 288 336H192V578C219 588 255 588 276 588C296 588 344 588 380 572C404 548 416 508 432 452H456L448 632C432 624 404 620 368 620H20V596L48 592C84 587 92 576 92 548V72C92 44 84 33 48 28L20 24ZM288 684H304L228 792C210 816 198 824 184 824C168 824 156 812 156 796C156 780 166 769 184 756Z" glyph-name="Egrave" horiz-adv-x="508" unicode="&#200;" /><glyph d="M20 0H452L484 184H460C444 128 412 72 384 48C356 32 304 32 280 32C256 32 219 31 192 42V296H288C312 276 324 240 332 200H352V432H332C324 392 312 356 288 336H192V578C219 588 255 588 276 588C296 588 344 588 380 572C404 548 416 508 432 452H456L448 632C432 624 404 620 368 620H20V596L48 592C84 587 92 576 92 548V72C92 44 84 33 48 28L20 24ZM152 684H368V728H152Z" glyph-name="Emacron" horiz-adv-x="508" unicode="&#274;" /><glyph d="M16 0H228V24L184 32C140 40 136 56 136 84V488L488 17V-88C488 -180 460 -208 424 -216C420 -156 400 -128 368 -128C347 -128 328 -144 328 -172C328 -212 360 -240 416 -240C488 -240 532 -184 532 -64V536C532 564 536 581 572 588L608 596V620H396V596L440 588C484 580 488 564 488 536V182L160 620H8V600L32 592C65 580 89 562 92 529V84C92 56 88 40 52 32L16 24Z" glyph-name="Eng" horiz-adv-x="624" unicode="&#330;" /><glyph d="M20 0H423C376 -22 292 -67 292 -116C292 -164 340 -184 392 -184C420 -184 440 -176 452 -168V-148C440 -156 420 -160 404 -160C368 -160 348 -144 348 -108C348 -62 406 -27 446 0H452L484 184H460C444 128 412 72 384 48C356 32 304 32 280 32C256 32 219 31 192 42V296H288C312 276 324 240 332 200H352V432H332C324 392 312 356 288 336H192V578C219 588 255 588 276 588C296 588 344 588 380 572C404 548 416 508 432 452H456L448 632C432 624 404 620 368 620H20V596L48 592C84 587 92 576 92 548V72C92 44 84 33 48 28L20 24Z" glyph-name="Eogonek" horiz-adv-x="508" unicode="&#280;" /><glyph d="M24 300H92V72C92 44 84 33 48 28L20 24V0H276C444 0 596 96 596 304C596 492 472 620 260 620H20V596L48 592C84 587 92 576 92 548V336H24ZM260 588C420 588 488 496 488 304C488 116 400 32 268 32C247 32 220 32 192 42V300H312V336H192V576C217 585 243 588 260 588Z" glyph-name="Eth" horiz-adv-x="628" unicode="&#208;" /><glyph d="M-16 228H89C110 78 188 -12 328 -12C452 -12 496 84 504 152H484C460 76 420 28 344 28C253 28 207 106 193 228H380L400 268H189C188 284 188 302 188 320C188 335 188 350 189 364H436L456 404H193C212 553 284 600 356 600C420 600 476 560 492 484L512 532C488 588 436 636 344 636C208 636 119 543 92 404H28L12 364H86C85 347 84 329 84 312C84 297 84 282 85 268H0Z" glyph-name="Euro" horiz-adv-x="528" unicode="&#8364;" /><glyph d="M-16 228H89C110 78 188 -12 328 -12C452 -12 496 84 504 152H484C460 76 420 28 344 28C253 28 207 106 193 228H380L400 268H189C188 284 188 302 188 320C188 335 188 350 189 364H436L456 404H193C212 553 284 600 356 600C420 600 476 560 492 484L512 532C488 588 436 636 344 636C208 636 119 543 92 404H28L12 364H86C85 347 84 329 84 312C84 297 84 282 85 268H0Z" glyph-name="Euro.PPF" horiz-adv-x="528" /><glyph d="M20 0H276V24L240 28C200 32 192 44 192 72V296H292C316 276 328 240 336 200H356V432H336C328 392 316 356 292 336H192V577C221 588 263 588 284 588C304 588 348 588 384 572C408 548 420 508 436 452H460L452 632C436 624 408 620 372 620H20V596L48 592C84 587 92 576 92 548V72C92 44 84 33 48 28L20 24Z" glyph-name="F" horiz-adv-x="472" unicode="F" /><glyph d="M36 319C36 99 172 -12 344 -12C428 -12 504 7 556 35L552 75V207C552 235 557 243 584 251L612 259V279H384V255L412 251C448 246 456 235 456 207V51C432 27 396 15 344 15C240 15 148 115 148 319C148 503 240 607 356 607C408 607 448 591 476 563C500 531 512 495 524 435H552L544 627H524L508 603C468 623 416 635 356 635C196 635 36 531 36 319Z" glyph-name="G" horiz-adv-x="632" unicode="G" /><glyph d="M36 319C36 99 172 -12 344 -12C428 -12 504 7 556 35L552 75V207C552 235 557 243 584 251L612 259V279H384V255L412 251C448 246 456 235 456 207V51C432 27 396 15 344 15C240 15 148 115 148 319C148 503 240 607 356 607C408 607 448 591 476 563C500 531 512 495 524 435H552L544 627H524L508 603C468 623 416 635 356 635C196 635 36 531 36 319ZM348 683C420 683 452 731 452 787H440C440 755 408 723 348 723C288 723 256 755 256 787H244C244 731 276 683 348 683Z" glyph-name="Gbreve" horiz-adv-x="632" unicode="&#286;" /><glyph d="M36 319C36 99 172 -12 344 -12C428 -12 504 7 556 35L552 75V207C552 235 557 243 584 251L612 259V279H384V255L412 251C448 246 456 235 456 207V51C432 27 396 15 344 15C240 15 148 115 148 319C148 503 240 607 356 607C408 607 448 591 476 563C500 531 512 495 524 435H552L544 627H524L508 603C468 623 416 635 356 635C196 635 36 531 36 319ZM303 -95C303 -121 322 -137 348 -140C348 -166 326 -210 303 -230H335C367 -201 393 -156 393 -102C393 -73 377 -50 345 -50C322 -50 303 -70 303 -95Z" glyph-name="Gcedilla" horiz-adv-x="632" /><glyph d="M36 319C36 99 172 -12 344 -12C428 -12 504 7 556 35L552 75V207C552 235 557 243 584 251L612 259V279H384V255L412 251C448 246 456 235 456 207V51C432 27 396 15 344 15C240 15 148 115 148 319C148 503 240 607 356 607C408 607 448 591 476 563C500 531 512 495 524 435H552L544 627H524L508 603C468 623 416 635 356 635C196 635 36 531 36 319ZM230 683H246L346 747H350L446 683H462L354 815H342Z" glyph-name="Gcircumflex" horiz-adv-x="632" unicode="&#284;" /><glyph d="M36 319C36 99 172 -12 344 -12C428 -12 504 7 556 35L552 75V207C552 235 557 243 584 251L612 259V279H384V255L412 251C448 246 456 235 456 207V51C432 27 396 15 344 15C240 15 148 115 148 319C148 503 240 607 356 607C408 607 448 591 476 563C500 531 512 495 524 435H552L544 627H524L508 603C468 623 416 635 356 635C196 635 36 531 36 319ZM303 -95C303 -121 322 -137 348 -140C348 -166 326 -210 303 -230H335C367 -201 393 -156 393 -102C393 -73 377 -50 345 -50C322 -50 303 -70 303 -95Z" glyph-name="Gcommaaccent" horiz-adv-x="632" unicode="&#290;" /><glyph d="M36 319C36 99 172 -12 344 -12C428 -12 504 7 556 35L552 75V207C552 235 557 243 584 251L612 259V279H384V255L412 251C448 246 456 235 456 207V51C432 27 396 15 344 15C240 15 148 115 148 319C148 503 240 607 356 607C408 607 448 591 476 563C500 531 512 495 524 435H552L544 627H524L508 603C468 623 416 635 356 635C196 635 36 531 36 319ZM348 683C376 683 396 707 396 735C396 763 376 787 348 787C320 787 300 763 300 735C300 707 320 683 348 683Z" glyph-name="Gdotaccent" horiz-adv-x="632" unicode="&#288;" /><glyph d="M20 0H264V24L236 28C200 33 192 44 192 72V292H464V72C464 44 456 33 420 28L392 24V0H636V24L608 28C572 33 564 44 564 72V548C564 576 572 587 608 592L636 596V620H392V596L420 592C456 587 464 576 464 548V336H192V548C192 576 200 587 236 592L264 596V620H20V596L48 592C84 587 92 576 92 548V72C92 44 84 33 48 28L20 24Z" glyph-name="H" horiz-adv-x="656" unicode="H" /><glyph d="M24 452H92V72C92 44 84 33 48 28L20 24V0H264V24L236 28C200 33 192 44 192 72V292H464V72C464 44 456 33 420 28L392 24V0H636V24L608 28C572 33 564 44 564 72V452H632V484H564V548C564 576 572 587 608 592L636 596V620H392V596L420 592C456 587 464 576 464 548V484H192V548C192 576 200 587 236 592L264 596V620H20V596L48 592C84 587 92 576 92 548V484H24ZM192 452H464V336H192Z" glyph-name="Hbar" horiz-adv-x="656" unicode="&#294;" /><glyph d="M20 0H264V24L236 28C200 33 192 44 192 72V292H464V72C464 44 456 33 420 28L392 24V0H636V24L608 28C572 33 564 44 564 72V548C564 576 572 587 608 592L636 596V620H392V596L420 592C456 587 464 576 464 548V336H192V548C192 576 200 587 236 592L264 596V620H20V596L48 592C84 587 92 576 92 548V72C92 44 84 33 48 28L20 24ZM210 684H226L326 748H330L426 684H442L334 816H322Z" glyph-name="Hcircumflex" horiz-adv-x="656" unicode="&#292;" /><glyph d="M20 0H264V24L236 28C200 33 192 44 192 72V548C192 576 200 587 236 592L264 596V620H20V596L48 592C84 587 92 576 92 548V72C92 44 84 33 48 28L20 24Z" glyph-name="I" horiz-adv-x="284" unicode="I" /><glyph d="M288 56C288 16 328 -12 384 -12C464 -12 540 25 540 164V548C540 576 548 587 584 592L612 596V620H356V596L384 592C424 586 440 576 440 548V128C440 44 420 20 384 12C380 72 360 100 328 100C307 100 288 84 288 56ZM20 0H264V24L236 28C200 33 192 44 192 72V548C192 576 200 587 236 592L264 596V620H20V596L48 592C84 587 92 576 92 548V72C92 44 84 33 48 28L20 24Z" glyph-name="IJ" horiz-adv-x="624" unicode="&#306;" /><glyph d="M20 0H264V24L236 28C200 33 192 44 192 72V548C192 576 200 587 236 592L264 596V620H20V596L48 592C84 587 92 576 92 548V72C92 44 84 33 48 28L20 24ZM98 684H114L218 756C236 769 246 780 246 796C246 812 234 824 218 824C204 824 191 817 174 792Z" glyph-name="Iacute" horiz-adv-x="284" unicode="&#205;" /><glyph d="M20 0H264V24L236 28C200 33 192 44 192 72V548C192 576 200 587 236 592L264 596V620H20V596L48 592C84 587 92 576 92 548V72C92 44 84 33 48 28L20 24ZM142 684C214 684 246 732 246 788H234C234 756 202 724 142 724C82 724 50 756 50 788H38C38 732 70 684 142 684Z" glyph-name="Ibreve" horiz-adv-x="284" unicode="&#300;" /><glyph d="M20 0H264V24L236 28C200 33 192 44 192 72V548C192 576 200 587 236 592L264 596V620H20V596L48 592C84 587 92 576 92 548V72C92 44 84 33 48 28L20 24ZM24 684H40L140 748H144L240 684H256L148 816H136Z" glyph-name="Icircumflex" horiz-adv-x="284" unicode="&#206;" /><glyph d="M20 0H264V24L236 28C200 33 192 44 192 72V548C192 576 200 587 236 592L264 596V620H20V596L48 592C84 587 92 576 92 548V72C92 44 84 33 48 28L20 24ZM214 684C238 684 258 700 258 728C258 756 238 772 214 772C190 772 170 756 170 728C170 700 190 684 214 684ZM70 684C94 684 114 700 114 728C114 756 94 772 70 772C46 772 26 756 26 728C26 700 46 684 70 684Z" glyph-name="Idieresis" horiz-adv-x="284" unicode="&#207;" /><glyph d="M20 0H264V24L236 28C200 33 192 44 192 72V548C192 576 200 587 236 592L264 596V620H20V596L48 592C84 587 92 576 92 548V72C92 44 84 33 48 28L20 24ZM142 684C170 684 190 708 190 736C190 764 170 788 142 788C114 788 94 764 94 736C94 708 114 684 142 684Z" glyph-name="Idotaccent" horiz-adv-x="284" unicode="&#304;" /><glyph d="M20 0H264V24L236 28C200 33 192 44 192 72V548C192 576 200 587 236 592L264 596V620H20V596L48 592C84 587 92 576 92 548V72C92 44 84 33 48 28L20 24ZM170 684H186L110 792C92 816 80 824 66 824C50 824 38 812 38 796C38 780 48 769 66 756Z" glyph-name="Igrave" horiz-adv-x="284" unicode="&#204;" /><glyph d="M20 0H264V24L236 28C200 33 192 44 192 72V548C192 576 200 587 236 592L264 596V620H20V596L48 592C84 587 92 576 92 548V72C92 44 84 33 48 28L20 24ZM34 684H250V728H34Z" glyph-name="Imacron" horiz-adv-x="284" unicode="&#298;" /><glyph d="M20 0H201C154 -22 70 -67 70 -116C70 -164 118 -184 170 -184C198 -184 218 -176 230 -168V-148C218 -156 198 -160 182 -160C146 -160 126 -144 126 -108C126 -62 184 -27 224 0H264V24L236 28C200 33 192 44 192 72V548C192 576 200 587 236 592L264 596V620H20V596L48 592C84 587 92 576 92 548V72C92 44 84 33 48 28L20 24Z" glyph-name="Iogonek" horiz-adv-x="284" unicode="&#302;" /><glyph d="M20 0H264V24L236 28C200 33 192 44 192 72V548C192 576 200 587 236 592L264 596V620H20V596L48 592C84 587 92 576 92 548V72C92 44 84 33 48 28L20 24ZM28 688H44C44 716 56 740 84 740C120 740 144 684 184 684C236 684 256 736 256 788H240C240 760 228 736 200 736C164 736 140 792 100 792C48 792 28 740 28 688Z" glyph-name="Itilde" horiz-adv-x="284" unicode="&#296;" /><glyph d="M4 56C4 16 44 -12 100 -12C180 -12 256 25 256 164V548C256 576 264 587 300 592L328 596V620H72V596L100 592C140 586 156 576 156 548V128C156 44 136 20 100 12C96 72 76 100 44 100C23 100 4 84 4 56Z" glyph-name="J" horiz-adv-x="340" unicode="J" /><glyph d="M4 56C4 16 44 -12 100 -12C180 -12 256 25 256 164V548C256 576 264 587 300 592L328 596V620H72V596L100 592C140 586 156 576 156 548V128C156 44 136 20 100 12C96 72 76 100 44 100C23 100 4 84 4 56ZM90 684H106L206 748H210L306 684H322L214 816H202Z" glyph-name="Jcircumflex" horiz-adv-x="340" unicode="&#308;" /><glyph d="M20 0H264V24L236 28C200 33 192 44 192 72V289L216 276L332 112C366 63 408 12 424 0H560V24C544 28 532 32 520 40C492 64 453 111 412 168L291 336L484 552C502 572 522 587 548 592L568 596V620H372V596L396 592C432 587 440 573 420 548L244 336L192 299V548C192 576 200 587 236 592L264 596V620H20V596L48 592C84 587 92 576 92 548V72C92 44 84 33 48 28L20 24Z" glyph-name="K" horiz-adv-x="564" unicode="K" /><glyph d="M20 0H264V24L236 28C200 33 192 44 192 72V289L216 276L332 112C366 63 408 12 424 0H560V24C544 28 532 32 520 40C492 64 453 111 412 168L291 336L484 552C502 572 522 587 548 592L568 596V620H372V596L396 592C432 587 440 573 420 548L244 336L192 299V548C192 576 200 587 236 592L264 596V620H20V596L48 592C84 587 92 576 92 548V72C92 44 84 33 48 28L20 24ZM241 -95C241 -121 260 -137 286 -140C286 -166 264 -210 241 -230H273C305 -201 331 -156 331 -102C331 -73 315 -50 283 -50C260 -50 241 -70 241 -95Z" glyph-name="Kcedilla" horiz-adv-x="564" /><glyph d="M20 0H264V24L236 28C200 33 192 44 192 72V289L216 276L332 112C366 63 408 12 424 0H560V24C544 28 532 32 520 40C492 64 453 111 412 168L291 336L484 552C502 572 522 587 548 592L568 596V620H372V596L396 592C432 587 440 573 420 548L244 336L192 299V548C192 576 200 587 236 592L264 596V620H20V596L48 592C84 587 92 576 92 548V72C92 44 84 33 48 28L20 24ZM241 -95C241 -121 260 -137 286 -140C286 -166 264 -210 241 -230H273C305 -201 331 -156 331 -102C331 -73 315 -50 283 -50C260 -50 241 -70 241 -95Z" glyph-name="Kcommaaccent" horiz-adv-x="564" unicode="&#310;" /><glyph d="M20 0H436L468 200H444C424 144 396 72 368 48C340 32 296 32 272 32C254 32 219 31 192 42V548C192 576 200 588 240 592L276 596V620H20V596L48 592C84 587 92 576 92 548V72C92 44 84 33 48 28L20 24Z" glyph-name="L" horiz-adv-x="480" unicode="L" /><glyph d="M20 0H436L468 200H444C424 144 396 72 368 48C340 32 296 32 272 32C254 32 219 31 192 42V548C192 576 200 588 240 592L276 596V620H20V596L48 592C84 587 92 576 92 548V72C92 44 84 33 48 28L20 24ZM104 684H120L224 756C242 769 252 780 252 796C252 812 240 824 224 824C210 824 197 817 180 792Z" glyph-name="Lacute" horiz-adv-x="480" unicode="&#313;" /><glyph d="M20 0H436L468 200H444C424 144 396 72 368 48C340 32 296 32 272 32C254 32 219 31 192 42V548C192 576 200 588 240 592L276 596V620H20V596L48 592C84 587 92 576 92 548V72C92 44 84 33 48 28L20 24ZM334 444H366C398 473 424 518 424 572C424 601 408 624 376 624C353 624 334 604 334 579C334 553 353 537 379 534C379 508 357 464 334 444Z" glyph-name="Lcaron" horiz-adv-x="480" unicode="&#317;" /><glyph d="M20 0H436L468 200H444C424 144 396 72 368 48C340 32 296 32 272 32C254 32 219 31 192 42V548C192 576 200 588 240 592L276 596V620H20V596L48 592C84 587 92 576 92 548V72C92 44 84 33 48 28L20 24ZM215 -95C215 -121 234 -137 260 -140C260 -166 238 -210 215 -230H247C279 -201 305 -156 305 -102C305 -73 289 -50 257 -50C234 -50 215 -70 215 -95Z" glyph-name="Lcedilla" horiz-adv-x="480" /><glyph d="M20 0H436L468 200H444C424 144 396 72 368 48C340 32 296 32 272 32C254 32 219 31 192 42V548C192 576 200 588 240 592L276 596V620H20V596L48 592C84 587 92 576 92 548V72C92 44 84 33 48 28L20 24ZM215 -95C215 -121 234 -137 260 -140C260 -166 238 -210 215 -230H247C279 -201 305 -156 305 -102C305 -73 289 -50 257 -50C234 -50 215 -70 215 -95Z" glyph-name="Lcommaaccent" horiz-adv-x="480" unicode="&#315;" /><glyph d="M20 0H436L468 200H444C424 144 396 72 368 48C340 32 296 32 272 32C254 32 219 31 192 42V548C192 576 200 588 240 592L276 596V620H20V596L48 592C84 587 92 576 92 548V72C92 44 84 33 48 28L20 24ZM316 280C344 280 364 304 364 332C364 360 344 384 316 384C288 384 268 360 268 332C268 304 288 280 316 280Z" glyph-name="Ldot" horiz-adv-x="480" unicode="&#319;" /><glyph d="M16 224 92 269V72C92 44 84 33 48 28L20 24V0H436L468 200H444C424 144 396 72 368 48C340 32 296 32 272 32C254 32 219 31 192 42V329L324 408V448L192 369V548C192 576 200 588 240 592L276 596V620H20V596L48 592C84 587 92 576 92 548V309L16 264Z" glyph-name="Lslash" horiz-adv-x="480" unicode="&#321;" /><glyph d="M16 0H228V24L184 32C140 40 136 56 136 84V488L340 16H348L568 484V72C568 44 560 33 524 28L496 24V0H740V24L712 28C676 33 668 44 668 72V548C668 576 676 583 712 588L740 592V620H588L380 168L188 620H16V600L40 592C80 579 90 566 92 532V84C92 56 88 40 52 32L16 24Z" glyph-name="M" horiz-adv-x="760" unicode="M" /><glyph d="M16 0H228V24L184 32C140 40 136 56 136 84V488L504 -4H532V536C532 564 536 581 572 588L608 596V620H396V596L440 588C484 580 488 564 488 536V182L160 620H8V600L32 592C65 580 89 562 92 529V84C92 56 88 40 52 32L16 24Z" glyph-name="N" horiz-adv-x="624" unicode="N" /><glyph d="M16 0H228V24L184 32C140 40 136 56 136 84V488L504 -4H532V536C532 564 536 581 572 588L608 596V620H396V596L440 588C484 580 488 564 488 536V182L160 620H8V600L32 592C65 580 89 562 92 529V84C92 56 88 40 52 32L16 24ZM268 684H284L388 756C406 769 416 780 416 796C416 812 404 824 388 824C374 824 361 817 344 792Z" glyph-name="Nacute" horiz-adv-x="624" unicode="&#323;" /><glyph d="M16 0H228V24L184 32C140 40 136 56 136 84V488L504 -4H532V536C532 564 536 581 572 588L608 596V620H396V596L440 588C484 580 488 564 488 536V182L160 620H8V600L32 592C65 580 89 562 92 529V84C92 56 88 40 52 32L16 24ZM306 684H318L426 816H410L314 752H310L210 816H194Z" glyph-name="Ncaron" horiz-adv-x="624" unicode="&#327;" /><glyph d="M16 0H228V24L184 32C140 40 136 56 136 84V488L504 -4H532V536C532 564 536 581 572 588L608 596V620H396V596L440 588C484 580 488 564 488 536V182L160 620H8V600L32 592C65 580 89 562 92 529V84C92 56 88 40 52 32L16 24ZM271 -95C271 -121 290 -137 316 -140C316 -166 294 -210 271 -230H303C335 -201 361 -156 361 -102C361 -73 345 -50 313 -50C290 -50 271 -70 271 -95Z" glyph-name="Ncedilla" horiz-adv-x="624" /><glyph d="M16 0H228V24L184 32C140 40 136 56 136 84V488L504 -4H532V536C532 564 536 581 572 588L608 596V620H396V596L440 588C484 580 488 564 488 536V182L160 620H8V600L32 592C65 580 89 562 92 529V84C92 56 88 40 52 32L16 24ZM271 -95C271 -121 290 -137 316 -140C316 -166 294 -210 271 -230H303C335 -201 361 -156 361 -102C361 -73 345 -50 313 -50C290 -50 271 -70 271 -95Z" glyph-name="Ncommaaccent" horiz-adv-x="624" unicode="&#325;" /><glyph d="M16 0H228V24L184 32C140 40 136 56 136 84V488L504 -4H532V536C532 564 536 581 572 588L608 596V620H396V596L440 588C484 580 488 564 488 536V182L160 620H8V600L32 592C65 580 89 562 92 529V84C92 56 88 40 52 32L16 24ZM198 688H214C214 716 226 740 254 740C290 740 314 684 354 684C406 684 426 736 426 788H410C410 760 398 736 370 736C334 736 310 792 270 792C218 792 198 740 198 688Z" glyph-name="Ntilde" horiz-adv-x="624" unicode="&#209;" /><glyph d="M36 316C36 100 164 -12 332 -12C496 -12 628 108 628 316C628 524 500 636 332 636C168 636 36 516 36 316ZM332 16C208 16 148 144 148 316C148 488 208 608 332 608C456 608 516 488 516 316C516 144 456 16 332 16Z" glyph-name="O" horiz-adv-x="664" unicode="O" /><glyph d="M516 0H876L908 184H884C868 128 836 72 808 48C780 32 728 32 704 32C680 32 643 31 616 42V296H712C736 276 748 240 756 200H776V432H756C748 392 736 356 712 336H616V578C643 588 679 588 700 588C720 588 768 588 804 572C828 548 840 508 856 452H880L872 632C856 624 828 620 792 620H516V570C470 613 407 636 332 636C168 636 36 516 36 316C36 100 164 -12 332 -12C406 -12 469 13 516 59ZM332 16C208 16 148 144 148 316C148 488 208 608 332 608C453 608 513 494 516 329V316C516 144 456 16 332 16Z" glyph-name="OE" horiz-adv-x="932" unicode="&#338;" /><glyph d="M36 316C36 100 164 -12 332 -12C496 -12 628 108 628 316C628 524 500 636 332 636C168 636 36 516 36 316ZM332 16C208 16 148 144 148 316C148 488 208 608 332 608C456 608 516 488 516 316C516 144 456 16 332 16ZM288 684H304L408 756C426 769 436 780 436 796C436 812 424 824 408 824C394 824 381 817 364 792Z" glyph-name="Oacute" horiz-adv-x="664" unicode="&#211;" /><glyph d="M36 316C36 100 164 -12 332 -12C496 -12 628 108 628 316C628 524 500 636 332 636C168 636 36 516 36 316ZM332 16C208 16 148 144 148 316C148 488 208 608 332 608C456 608 516 488 516 316C516 144 456 16 332 16ZM332 684C404 684 436 732 436 788H424C424 756 392 724 332 724C272 724 240 756 240 788H228C228 732 260 684 332 684Z" glyph-name="Obreve" horiz-adv-x="664" unicode="&#334;" /><glyph d="M36 316C36 100 164 -12 332 -12C496 -12 628 108 628 316C628 524 500 636 332 636C168 636 36 516 36 316ZM332 16C208 16 148 144 148 316C148 488 208 608 332 608C456 608 516 488 516 316C516 144 456 16 332 16ZM214 684H230L330 748H334L430 684H446L338 816H326Z" glyph-name="Ocircumflex" horiz-adv-x="664" unicode="&#212;" /><glyph d="M36 316C36 100 164 -12 332 -12C496 -12 628 108 628 316C628 524 500 636 332 636C168 636 36 516 36 316ZM332 16C208 16 148 144 148 316C148 488 208 608 332 608C456 608 516 488 516 316C516 144 456 16 332 16ZM404 684C428 684 448 700 448 728C448 756 428 772 404 772C380 772 360 756 360 728C360 700 380 684 404 684ZM260 684C284 684 304 700 304 728C304 756 284 772 260 772C236 772 216 756 216 728C216 700 236 684 260 684Z" glyph-name="Odieresis" horiz-adv-x="664" unicode="&#214;" /><glyph d="M36 316C36 100 164 -12 332 -12C496 -12 628 108 628 316C628 524 500 636 332 636C168 636 36 516 36 316ZM332 16C208 16 148 144 148 316C148 488 208 608 332 608C456 608 516 488 516 316C516 144 456 16 332 16ZM360 684H376L300 792C282 816 270 824 256 824C240 824 228 812 228 796C228 780 238 769 256 756Z" glyph-name="Ograve" horiz-adv-x="664" unicode="&#210;" /><glyph d="M36 316C36 100 164 -12 332 -12C496 -12 628 108 628 316C628 524 500 636 332 636C168 636 36 516 36 316ZM332 16C208 16 148 144 148 316C148 488 208 608 332 608C456 608 516 488 516 316C516 144 456 16 332 16ZM376 684H392L504 748C524 760 536 772 536 788C536 804 524 812 508 812C492 812 477 799 460 780ZM232 684H248L360 748C380 760 392 772 392 788C392 804 380 812 364 812C348 812 333 799 316 780Z" glyph-name="Ohungarumlaut" horiz-adv-x="664" unicode="&#336;" /><glyph d="M36 316C36 100 164 -12 332 -12C496 -12 628 108 628 316C628 524 500 636 332 636C168 636 36 516 36 316ZM332 16C208 16 148 144 148 316C148 488 208 608 332 608C456 608 516 488 516 316C516 144 456 16 332 16ZM224 684H440V728H224Z" glyph-name="Omacron" horiz-adv-x="664" unicode="&#332;" /><glyph d="M64 0H288V156C176 174 156 266 156 372C156 484 208 608 340 608C472 608 524 484 524 372C524 266 504 174 392 156V0H616V148H596C584 92 571 64 524 64H424V128C554 139 636 244 636 368C636 532 500 636 340 636C180 636 44 532 44 368C44 244 126 139 256 128V64H156C109 64 96 92 84 148H64Z" glyph-name="Omega" horiz-adv-x="680" unicode="&#8486;" /><glyph d="M36 316C36 184 83 91 159 38L88 -76H124L185 22C228 0 278 -12 332 -12C496 -12 628 108 628 316C628 431 588 518 524 571L584 668H548L499 589C452 620 395 636 332 636C168 636 36 516 36 316ZM148 316C148 488 208 608 332 608C390 608 435 581 465 534L195 97C163 151 148 228 148 316ZM332 16C283 16 244 36 215 70L482 503C505 454 516 390 516 316C516 144 456 16 332 16Z" glyph-name="Oslash" horiz-adv-x="664" unicode="&#216;" /><glyph d="M36 316C36 184 83 91 159 38L88 -76H124L185 22C228 0 278 -12 332 -12C496 -12 628 108 628 316C628 431 588 518 524 571L584 668H548L499 589C452 620 395 636 332 636C168 636 36 516 36 316ZM148 316C148 488 208 608 332 608C390 608 435 581 465 534L195 97C163 151 148 228 148 316ZM332 16C283 16 244 36 215 70L482 503C505 454 516 390 516 316C516 144 456 16 332 16ZM288 684H304L408 756C426 769 436 780 436 796C436 812 424 824 408 824C394 824 381 817 364 792Z" glyph-name="Oslashacute" horiz-adv-x="664" unicode="&#510;" /><glyph d="M36 316C36 100 164 -12 332 -12C496 -12 628 108 628 316C628 524 500 636 332 636C168 636 36 516 36 316ZM332 16C208 16 148 144 148 316C148 488 208 608 332 608C456 608 516 488 516 316C516 144 456 16 332 16ZM218 688H234C234 716 246 740 274 740C310 740 334 684 374 684C426 684 446 736 446 788H430C430 760 418 736 390 736C354 736 330 792 290 792C238 792 218 740 218 688Z" glyph-name="Otilde" horiz-adv-x="664" unicode="&#213;" /><glyph d="M20 0H276V24L240 28C200 32 192 44 192 72V260C214 251 254 248 272 248C384 248 484 308 484 444C484 564 388 620 244 620H20V596L48 592C84 587 92 576 92 548V72C92 44 84 33 48 28L20 24ZM244 588C324 588 384 552 384 440C384 344 328 280 216 280H192V581C213 588 234 588 244 588Z" glyph-name="P" horiz-adv-x="496" unicode="P" /><glyph d="M36 316C36 121 140 11 284 -8L372 -96C421 -145 468 -172 536 -172C576 -172 612 -160 628 -148V-136C560 -136 516 -124 464 -76L380 -3C513 20 628 125 628 316C628 524 500 636 332 636C168 636 36 516 36 316ZM332 16C208 16 148 144 148 316C148 488 208 608 332 608C456 608 516 488 516 316C516 144 456 16 332 16Z" glyph-name="Q" horiz-adv-x="664" unicode="Q" /><glyph d="M20 0H264V24L236 28C200 33 192 44 192 72V264H257L356 104C383 61 416 12 432 0H560V24C544 26 533 30 520 36C504 48 476 89 456 120L388 224C372 249 356 275 336 292C409 312 476 364 476 452C476 564 388 620 248 620H20V596L48 592C84 587 92 576 92 548V72C92 44 84 33 48 28L20 24ZM248 588C320 588 376 556 376 448C376 352 312 296 224 296H192V581C213 588 238 588 248 588Z" glyph-name="R" horiz-adv-x="564" unicode="R" /><glyph d="M20 0H264V24L236 28C200 33 192 44 192 72V264H257L356 104C383 61 416 12 432 0H560V24C544 26 533 30 520 36C504 48 476 89 456 120L388 224C372 249 356 275 336 292C409 312 476 364 476 452C476 564 388 620 248 620H20V596L48 592C84 587 92 576 92 548V72C92 44 84 33 48 28L20 24ZM248 588C320 588 376 556 376 448C376 352 312 296 224 296H192V581C213 588 238 588 248 588ZM204 684H220L324 756C342 769 352 780 352 796C352 812 340 824 324 824C310 824 297 817 280 792Z" glyph-name="Racute" horiz-adv-x="564" unicode="&#340;" /><glyph d="M20 0H264V24L236 28C200 33 192 44 192 72V264H257L356 104C383 61 416 12 432 0H560V24C544 26 533 30 520 36C504 48 476 89 456 120L388 224C372 249 356 275 336 292C409 312 476 364 476 452C476 564 388 620 248 620H20V596L48 592C84 587 92 576 92 548V72C92 44 84 33 48 28L20 24ZM248 588C320 588 376 556 376 448C376 352 312 296 224 296H192V581C213 588 238 588 248 588ZM242 684H254L362 816H346L250 752H246L146 816H130Z" glyph-name="Rcaron" horiz-adv-x="564" unicode="&#344;" /><glyph d="M20 0H264V24L236 28C200 33 192 44 192 72V264H257L356 104C383 61 416 12 432 0H560V24C544 26 533 30 520 36C504 48 476 89 456 120L388 224C372 249 356 275 336 292C409 312 476 364 476 452C476 564 388 620 248 620H20V596L48 592C84 587 92 576 92 548V72C92 44 84 33 48 28L20 24ZM248 588C320 588 376 556 376 448C376 352 312 296 224 296H192V581C213 588 238 588 248 588ZM241 -95C241 -121 260 -137 286 -140C286 -166 264 -210 241 -230H273C305 -201 331 -156 331 -102C331 -73 315 -50 283 -50C260 -50 241 -70 241 -95Z" glyph-name="Rcedilla" horiz-adv-x="564" /><glyph d="M20 0H264V24L236 28C200 33 192 44 192 72V264H257L356 104C383 61 416 12 432 0H560V24C544 26 533 30 520 36C504 48 476 89 456 120L388 224C372 249 356 275 336 292C409 312 476 364 476 452C476 564 388 620 248 620H20V596L48 592C84 587 92 576 92 548V72C92 44 84 33 48 28L20 24ZM248 588C320 588 376 556 376 448C376 352 312 296 224 296H192V581C213 588 238 588 248 588ZM241 -95C241 -121 260 -137 286 -140C286 -166 264 -210 241 -230H273C305 -201 331 -156 331 -102C331 -73 315 -50 283 -50C260 -50 241 -70 241 -95Z" glyph-name="Rcommaaccent" horiz-adv-x="564" unicode="&#342;" /><glyph d="M52 -12H72L88 12C116 0 160 -12 216 -12C348 -12 432 60 432 176C432 264 375 313 300 352L200 404C156 427 136 456 136 504C136 572 188 608 236 608C276 608 312 592 332 572C352 548 372 496 380 440H404L396 628H380L360 612C336 624 288 636 240 636C140 636 44 580 44 476C44 404 81 355 156 316L256 264C304 239 336 204 336 144C336 68 288 16 216 16C180 16 136 32 116 56C92 96 80 152 72 212H44C48 144 52 32 52 -12Z" glyph-name="S" horiz-adv-x="456" unicode="S" /><glyph d="M52 -12H72L88 12C116 0 160 -12 216 -12C348 -12 432 60 432 176C432 264 375 313 300 352L200 404C156 427 136 456 136 504C136 572 188 608 236 608C276 608 312 592 332 572C352 548 372 496 380 440H404L396 628H380L360 612C336 624 288 636 240 636C140 636 44 580 44 476C44 404 81 355 156 316L256 264C304 239 336 204 336 144C336 68 288 16 216 16C180 16 136 32 116 56C92 96 80 152 72 212H44C48 144 52 32 52 -12ZM188 684H204L308 756C326 769 336 780 336 796C336 812 324 824 308 824C294 824 281 817 264 792Z" glyph-name="Sacute" horiz-adv-x="456" unicode="&#346;" /><glyph d="M52 -12H72L88 12C116 0 160 -12 216 -12C348 -12 432 60 432 176C432 264 375 313 300 352L200 404C156 427 136 456 136 504C136 572 188 608 236 608C276 608 312 592 332 572C352 548 372 496 380 440H404L396 628H380L360 612C336 624 288 636 240 636C140 636 44 580 44 476C44 404 81 355 156 316L256 264C304 239 336 204 336 144C336 68 288 16 216 16C180 16 136 32 116 56C92 96 80 152 72 212H44C48 144 52 32 52 -12ZM226 684H238L346 816H330L234 752H230L130 816H114Z" glyph-name="Scaron" horiz-adv-x="456" unicode="&#352;" /><glyph d="M168 -68C224 -76 256 -88 256 -120C256 -148 236 -164 196 -164C172 -164 148 -156 132 -148V-168C148 -176 172 -184 204 -184C264 -184 312 -164 312 -112C312 -64 260 -44 208 -37L226 -12C352 -8 432 63 432 176C432 264 375 313 300 352L200 404C156 427 136 456 136 504C136 572 188 608 236 608C276 608 312 592 332 572C352 548 372 496 380 440H404L396 628H380L360 612C336 624 288 636 240 636C140 636 44 580 44 476C44 404 81 355 156 316L256 264C304 239 336 204 336 144C336 68 288 16 216 16C180 16 136 32 116 56C92 96 80 152 72 212H44C48 144 52 32 52 -12H72L88 12C114 0 155 -10 206 -12Z" glyph-name="Scedilla" horiz-adv-x="456" unicode="&#350;" /><glyph d="M52 -12H72L88 12C116 0 160 -12 216 -12C348 -12 432 60 432 176C432 264 375 313 300 352L200 404C156 427 136 456 136 504C136 572 188 608 236 608C276 608 312 592 332 572C352 548 372 496 380 440H404L396 628H380L360 612C336 624 288 636 240 636C140 636 44 580 44 476C44 404 81 355 156 316L256 264C304 239 336 204 336 144C336 68 288 16 216 16C180 16 136 32 116 56C92 96 80 152 72 212H44C48 144 52 32 52 -12ZM114 684H130L230 748H234L330 684H346L238 816H226Z" glyph-name="Scircumflex" horiz-adv-x="456" unicode="&#348;" /><glyph d="M52 -12H72L88 12C116 0 160 -12 216 -12C348 -12 432 60 432 176C432 264 375 313 300 352L200 404C156 427 136 456 136 504C136 572 188 608 236 608C276 608 312 592 332 572C352 548 372 496 380 440H404L396 628H380L360 612C336 624 288 636 240 636C140 636 44 580 44 476C44 404 81 355 156 316L256 264C304 239 336 204 336 144C336 68 288 16 216 16C180 16 136 32 116 56C92 96 80 152 72 212H44C48 144 52 32 52 -12ZM183 -95C183 -121 202 -137 228 -140C228 -166 206 -210 183 -230H215C247 -201 273 -156 273 -102C273 -73 257 -50 225 -50C202 -50 183 -70 183 -95Z" glyph-name="Scommaaccent" horiz-adv-x="456" unicode="&#536;" /><glyph d="M132 0H400V28L368 32C328 37 316 44 316 72V588H340C360 588 408 588 444 572C468 548 480 508 496 452H520L512 632C496 624 468 620 432 620H100C64 620 36 624 20 632L12 452H36C52 508 64 548 88 572C124 588 172 588 192 588H216V72C216 44 204 37 164 32L132 28Z" glyph-name="T" horiz-adv-x="532" unicode="T" /><glyph d="M120 312H216V72C216 44 204 37 164 32L132 28V0H400V28L368 32C328 37 316 44 316 72V312H412V344H316V588H340C360 588 408 588 444 572C468 548 480 508 496 452H520L512 632C496 624 468 620 432 620H100C64 620 36 624 20 632L12 452H36C52 508 64 548 88 572C124 588 172 588 192 588H216V344H120Z" glyph-name="Tbar" horiz-adv-x="532" unicode="&#358;" /><glyph d="M132 0H400V28L368 32C328 37 316 44 316 72V588H340C360 588 408 588 444 572C468 548 480 508 496 452H520L512 632C496 624 468 620 432 620H100C64 620 36 624 20 632L12 452H36C52 508 64 548 88 572C124 588 172 588 192 588H216V72C216 44 204 37 164 32L132 28ZM262 684H274L382 816H366L270 752H266L166 816H150Z" glyph-name="Tcaron" horiz-adv-x="532" unicode="&#356;" /><glyph d="M132 0H400V28L368 32C328 37 316 44 316 72V588H340C360 588 408 588 444 572C468 548 480 508 496 452H520L512 632C496 624 468 620 432 620H100C64 620 36 624 20 632L12 452H36C52 508 64 548 88 572C124 588 172 588 192 588H216V72C216 44 204 37 164 32L132 28ZM225 -95C225 -121 244 -137 270 -140C270 -166 248 -210 225 -230H257C289 -201 315 -156 315 -102C315 -73 299 -50 267 -50C244 -50 225 -70 225 -95Z" glyph-name="Tcommaaccent" horiz-adv-x="532" unicode="&#354;" /><glyph d="M20 0H264V24L236 28C200 33 192 44 192 72V144C214 135 254 132 272 132C384 132 484 192 484 328C484 448 388 504 244 504H192V548C192 576 200 587 236 592L264 596V620H20V596L48 592C84 587 92 576 92 548V72C92 44 84 33 48 28L20 24ZM244 472C324 472 384 436 384 324C384 228 328 164 216 164H192V465C213 472 234 472 244 472Z" glyph-name="Thorn" horiz-adv-x="496" unicode="&#222;" /><glyph d="M92 208C92 44 192 -12 316 -12C452 -12 540 80 540 232V536C540 564 544 580 580 588L616 596V620H404V596L448 588C492 580 496 564 496 536V232C496 120 448 48 340 48C256 48 192 92 192 204V548C192 576 200 587 236 592L264 596V620H20V596L48 592C84 587 92 576 92 548Z" glyph-name="U" horiz-adv-x="628" unicode="U" /><glyph d="M92 208C92 44 192 -12 316 -12C452 -12 540 80 540 232V536C540 564 544 580 580 588L616 596V620H404V596L448 588C492 580 496 564 496 536V232C496 120 448 48 340 48C256 48 192 92 192 204V548C192 576 200 587 236 592L264 596V620H20V596L48 592C84 587 92 576 92 548ZM292 684H308L412 756C430 769 440 780 440 796C440 812 428 824 412 824C398 824 385 817 368 792Z" glyph-name="Uacute" horiz-adv-x="628" unicode="&#218;" /><glyph d="M92 208C92 44 192 -12 316 -12C452 -12 540 80 540 232V536C540 564 544 580 580 588L616 596V620H404V596L448 588C492 580 496 564 496 536V232C496 120 448 48 340 48C256 48 192 92 192 204V548C192 576 200 587 236 592L264 596V620H20V596L48 592C84 587 92 576 92 548ZM336 684C408 684 440 732 440 788H428C428 756 396 724 336 724C276 724 244 756 244 788H232C232 732 264 684 336 684Z" glyph-name="Ubreve" horiz-adv-x="628" unicode="&#364;" /><glyph d="M92 208C92 44 192 -12 316 -12C452 -12 540 80 540 232V536C540 564 544 580 580 588L616 596V620H404V596L448 588C492 580 496 564 496 536V232C496 120 448 48 340 48C256 48 192 92 192 204V548C192 576 200 587 236 592L264 596V620H20V596L48 592C84 587 92 576 92 548ZM218 684H234L334 748H338L434 684H450L342 816H330Z" glyph-name="Ucircumflex" horiz-adv-x="628" unicode="&#219;" /><glyph d="M92 208C92 44 192 -12 316 -12C452 -12 540 80 540 232V536C540 564 544 580 580 588L616 596V620H404V596L448 588C492 580 496 564 496 536V232C496 120 448 48 340 48C256 48 192 92 192 204V548C192 576 200 587 236 592L264 596V620H20V596L48 592C84 587 92 576 92 548ZM408 684C432 684 452 700 452 728C452 756 432 772 408 772C384 772 364 756 364 728C364 700 384 684 408 684ZM264 684C288 684 308 700 308 728C308 756 288 772 264 772C240 772 220 756 220 728C220 700 240 684 264 684Z" glyph-name="Udieresis" horiz-adv-x="628" unicode="&#220;" /><glyph d="M92 208C92 44 192 -12 316 -12C452 -12 540 80 540 232V536C540 564 544 580 580 588L616 596V620H404V596L448 588C492 580 496 564 496 536V232C496 120 448 48 340 48C256 48 192 92 192 204V548C192 576 200 587 236 592L264 596V620H20V596L48 592C84 587 92 576 92 548ZM364 684H380L304 792C286 816 274 824 260 824C244 824 232 812 232 796C232 780 242 769 260 756Z" glyph-name="Ugrave" horiz-adv-x="628" unicode="&#217;" /><glyph d="M92 208C92 44 192 -12 316 -12C452 -12 540 80 540 232V536C540 564 544 580 580 588L616 596V620H404V596L448 588C492 580 496 564 496 536V232C496 120 448 48 340 48C256 48 192 92 192 204V548C192 576 200 587 236 592L264 596V620H20V596L48 592C84 587 92 576 92 548ZM380 684H396L508 748C528 760 540 772 540 788C540 804 528 812 512 812C496 812 481 799 464 780ZM236 684H252L364 748C384 760 396 772 396 788C396 804 384 812 368 812C352 812 337 799 320 780Z" glyph-name="Uhungarumlaut" horiz-adv-x="628" unicode="&#368;" /><glyph d="M92 208C92 44 192 -12 316 -12C452 -12 540 80 540 232V536C540 564 544 580 580 588L616 596V620H404V596L448 588C492 580 496 564 496 536V232C496 120 448 48 340 48C256 48 192 92 192 204V548C192 576 200 587 236 592L264 596V620H20V596L48 592C84 587 92 576 92 548ZM228 684H444V728H228Z" glyph-name="Umacron" horiz-adv-x="628" unicode="&#362;" /><glyph d="M242 -116C242 -164 290 -184 342 -184C370 -184 390 -176 402 -168V-148C390 -156 370 -160 354 -160C318 -160 298 -144 298 -108C298 -61 358 -26 398 1C486 31 540 113 540 232V536C540 564 544 580 580 588L616 596V620H404V596L448 588C492 580 496 564 496 536V232C496 120 448 48 340 48C256 48 192 92 192 204V548C192 576 200 587 236 592L264 596V620H20V596L48 592C84 587 92 576 92 548V208C92 44 192 -12 316 -12C328 -12 341 -11 353 -10C305 -34 242 -73 242 -116Z" glyph-name="Uogonek" horiz-adv-x="628" unicode="&#370;" /><glyph d="M92 208C92 44 192 -12 316 -12C452 -12 540 80 540 232V536C540 564 544 580 580 588L616 596V620H404V596L448 588C492 580 496 564 496 536V232C496 120 448 48 340 48C256 48 192 92 192 204V548C192 576 200 587 236 592L264 596V620H20V596L48 592C84 587 92 576 92 548ZM336 684C380 684 420 712 420 756C420 800 380 828 336 828C292 828 252 800 252 756C252 712 292 684 336 684ZM336 700C308 700 292 724 292 756C292 788 308 812 336 812C364 812 380 788 380 756C380 724 364 700 336 700Z" glyph-name="Uring" horiz-adv-x="628" unicode="&#366;" /><glyph d="M92 208C92 44 192 -12 316 -12C452 -12 540 80 540 232V536C540 564 544 580 580 588L616 596V620H404V596L448 588C492 580 496 564 496 536V232C496 120 448 48 340 48C256 48 192 92 192 204V548C192 576 200 587 236 592L264 596V620H20V596L48 592C84 587 92 576 92 548ZM222 688H238C238 716 250 740 278 740C314 740 338 684 378 684C430 684 450 736 450 788H434C434 760 422 736 394 736C358 736 334 792 294 792C242 792 222 740 222 688Z" glyph-name="Utilde" horiz-adv-x="628" unicode="&#360;" /><glyph d="M264 0H300L488 528C504 572 512 586 536 592L552 596V620H384V596L416 592C447 588 454 570 444 540L315 156L176 532C163 568 167 586 204 592L228 596V620H8V596L24 592C45 587 53 574 64 544Z" glyph-name="V" horiz-adv-x="560" unicode="V" /><glyph d="M256 0H296L436 366L560 0H596L780 528C796 572 804 586 828 592L844 596V620H676V596L708 592C739 588 746 570 736 540L611 159L484 532C472 568 475 586 512 592L536 596V620H320V596L336 592C357 587 365 574 376 544L417 423L310 147L176 532C163 568 167 586 204 592L228 596V620H8V596L24 592C45 587 53 574 64 544Z" glyph-name="W" horiz-adv-x="852" unicode="W" /><glyph d="M256 0H296L436 366L560 0H596L780 528C796 572 804 586 828 592L844 596V620H676V596L708 592C739 588 746 570 736 540L611 159L484 532C472 568 475 586 512 592L536 596V620H320V596L336 592C357 587 365 574 376 544L417 423L310 147L176 532C163 568 167 586 204 592L228 596V620H8V596L24 592C45 587 53 574 64 544ZM382 684H398L502 756C520 769 530 780 530 796C530 812 518 824 502 824C488 824 475 817 458 792Z" glyph-name="Wacute" horiz-adv-x="852" unicode="&#7810;" /><glyph d="M256 0H296L436 366L560 0H596L780 528C796 572 804 586 828 592L844 596V620H676V596L708 592C739 588 746 570 736 540L611 159L484 532C472 568 475 586 512 592L536 596V620H320V596L336 592C357 587 365 574 376 544L417 423L310 147L176 532C163 568 167 586 204 592L228 596V620H8V596L24 592C45 587 53 574 64 544ZM308 684H324L424 748H428L524 684H540L432 816H420Z" glyph-name="Wcircumflex" horiz-adv-x="852" unicode="&#372;" /><glyph d="M256 0H296L436 366L560 0H596L780 528C796 572 804 586 828 592L844 596V620H676V596L708 592C739 588 746 570 736 540L611 159L484 532C472 568 475 586 512 592L536 596V620H320V596L336 592C357 587 365 574 376 544L417 423L310 147L176 532C163 568 167 586 204 592L228 596V620H8V596L24 592C45 587 53 574 64 544ZM498 684C522 684 542 700 542 728C542 756 522 772 498 772C474 772 454 756 454 728C454 700 474 684 498 684ZM354 684C378 684 398 700 398 728C398 756 378 772 354 772C330 772 310 756 310 728C310 700 330 684 354 684Z" glyph-name="Wdieresis" horiz-adv-x="852" unicode="&#7812;" /><glyph d="M256 0H296L436 366L560 0H596L780 528C796 572 804 586 828 592L844 596V620H676V596L708 592C739 588 746 570 736 540L611 159L484 532C472 568 475 586 512 592L536 596V620H320V596L336 592C357 587 365 574 376 544L417 423L310 147L176 532C163 568 167 586 204 592L228 596V620H8V596L24 592C45 587 53 574 64 544ZM454 684H470L394 792C376 816 364 824 350 824C334 824 322 812 322 796C322 780 332 769 350 756Z" glyph-name="Wgrave" horiz-adv-x="852" unicode="&#7808;" /><glyph d="M8 0H200V24L176 28C134 35 129 49 148 76L260 249L368 80C386 51 384 37 360 32L320 24V0H556V24L540 28C522 32 507 46 496 64L326 330L480 556C490 569 500 582 520 588L548 596V620H360V596L384 592C426 585 429 572 412 544L303 365L192 540C174 569 176 583 200 588L240 596V620H8V596L24 592C42 588 53 574 64 556L236 286L80 64C70 51 56 38 36 32L8 24Z" glyph-name="X" horiz-adv-x="564" unicode="X" /><glyph d="M144 0H412V24L380 28C340 33 328 44 328 72V265L484 556C493 572 502 586 524 592L540 596V620H372V596L408 588C436 582 435 566 424 544L304 304L180 540C165 571 164 583 188 588L228 596V620H8V596L24 592C42 588 51 575 60 556L228 241V72C228 44 216 33 176 28L144 24Z" glyph-name="Y" horiz-adv-x="548" unicode="Y" /><glyph d="M144 0H412V24L380 28C340 33 328 44 328 72V265L484 556C493 572 502 586 524 592L540 596V620H372V596L408 588C436 582 435 566 424 544L304 304L180 540C165 571 164 583 188 588L228 596V620H8V596L24 592C42 588 51 575 60 556L228 241V72C228 44 216 33 176 28L144 24ZM256 684H272L376 756C394 769 404 780 404 796C404 812 392 824 376 824C362 824 349 817 332 792Z" glyph-name="Yacute" horiz-adv-x="548" unicode="&#221;" /><glyph d="M144 0H412V24L380 28C340 33 328 44 328 72V265L484 556C493 572 502 586 524 592L540 596V620H372V596L408 588C436 582 435 566 424 544L304 304L180 540C165 571 164 583 188 588L228 596V620H8V596L24 592C42 588 51 575 60 556L228 241V72C228 44 216 33 176 28L144 24ZM182 684H198L298 748H302L398 684H414L306 816H294Z" glyph-name="Ycircumflex" horiz-adv-x="548" unicode="&#374;" /><glyph d="M144 0H412V24L380 28C340 33 328 44 328 72V265L484 556C493 572 502 586 524 592L540 596V620H372V596L408 588C436 582 435 566 424 544L304 304L180 540C165 571 164 583 188 588L228 596V620H8V596L24 592C42 588 51 575 60 556L228 241V72C228 44 216 33 176 28L144 24ZM372 684C396 684 416 700 416 728C416 756 396 772 372 772C348 772 328 756 328 728C328 700 348 684 372 684ZM228 684C252 684 272 700 272 728C272 756 252 772 228 772C204 772 184 756 184 728C184 700 204 684 228 684Z" glyph-name="Ydieresis" horiz-adv-x="548" unicode="&#376;" /><glyph d="M144 0H412V24L380 28C340 33 328 44 328 72V265L484 556C493 572 502 586 524 592L540 596V620H372V596L408 588C436 582 435 566 424 544L304 304L180 540C165 571 164 583 188 588L228 596V620H8V596L24 592C42 588 51 575 60 556L228 241V72C228 44 216 33 176 28L144 24ZM328 684H344L268 792C250 816 238 824 224 824C208 824 196 812 196 796C196 780 206 769 224 756Z" glyph-name="Ygrave" horiz-adv-x="548" unicode="&#7922;" /><glyph d="M20 0H436L468 188H444C428 132 400 76 372 52C344 36 292 36 268 36H140L464 608V620H124C88 620 60 624 44 632L32 452H56C72 508 84 544 108 568C144 584 192 584 212 584H343L20 16Z" glyph-name="Z" horiz-adv-x="488" unicode="Z" /><glyph d="M20 0H436L468 188H444C428 132 400 76 372 52C344 36 292 36 268 36H140L464 608V620H124C88 620 60 624 44 632L32 452H56C72 508 84 544 108 568C144 584 192 584 212 584H343L20 16ZM208 684H224L328 756C346 769 356 780 356 796C356 812 344 824 328 824C314 824 301 817 284 792Z" glyph-name="Zacute" horiz-adv-x="488" unicode="&#377;" /><glyph d="M20 0H436L468 188H444C428 132 400 76 372 52C344 36 292 36 268 36H140L464 608V620H124C88 620 60 624 44 632L32 452H56C72 508 84 544 108 568C144 584 192 584 212 584H343L20 16ZM246 684H258L366 816H350L254 752H250L150 816H134Z" glyph-name="Zcaron" horiz-adv-x="488" unicode="&#381;" /><glyph d="M20 0H436L468 188H444C428 132 400 76 372 52C344 36 292 36 268 36H140L464 608V620H124C88 620 60 624 44 632L32 452H56C72 508 84 544 108 568C144 584 192 584 212 584H343L20 16ZM252 684C280 684 300 708 300 736C300 764 280 788 252 788C224 788 204 764 204 736C204 708 224 684 252 684Z" glyph-name="Zdotaccent" horiz-adv-x="488" unicode="&#379;" /><glyph d="M32 92C32 24 80 -12 152 -12C220 -12 256 28 276 60C280 20 308 -12 352 -12C396 -12 424 4 448 36V48C436 40 420 36 404 36C384 36 368 48 368 80V332C368 432 328 480 224 480C168 480 119 452 88 424C61 402 40 380 40 352C40 320 60 304 84 304C112 304 132 324 132 352C132 376 124 396 116 416C136 424 156 432 184 432C240 432 272 392 272 316V244L188 224C90 199 32 164 32 92ZM124 112C124 164 167 183 224 204L272 220V68C256 56 232 44 196 44C152 44 124 68 124 112Z" glyph-name="a" horiz-adv-x="456" unicode="a" /><glyph d="M32 92C32 24 80 -12 152 -12C220 -12 256 28 276 60C280 20 308 -12 352 -12C396 -12 424 4 448 36V48C436 40 420 36 404 36C384 36 368 48 368 80V332C368 432 328 480 224 480C168 480 119 452 88 424C61 402 40 380 40 352C40 320 60 304 84 304C112 304 132 324 132 352C132 376 124 396 116 416C136 424 156 432 184 432C240 432 272 392 272 316V244L188 224C90 199 32 164 32 92ZM124 112C124 164 167 183 224 204L272 220V68C256 56 232 44 196 44C152 44 124 68 124 112ZM168 536H184L288 608C306 621 316 632 316 648C316 664 304 676 288 676C274 676 261 669 244 644Z" glyph-name="aacute" horiz-adv-x="456" unicode="&#225;" /><glyph d="M32 92C32 24 80 -12 152 -12C220 -12 256 28 276 60C280 20 308 -12 352 -12C396 -12 424 4 448 36V48C436 40 420 36 404 36C384 36 368 48 368 80V332C368 432 328 480 224 480C168 480 119 452 88 424C61 402 40 380 40 352C40 320 60 304 84 304C112 304 132 324 132 352C132 376 124 396 116 416C136 424 156 432 184 432C240 432 272 392 272 316V244L188 224C90 199 32 164 32 92ZM124 112C124 164 167 183 224 204L272 220V68C256 56 232 44 196 44C152 44 124 68 124 112ZM212 536C284 536 316 584 316 640H304C304 608 272 576 212 576C152 576 120 608 120 640H108C108 584 140 536 212 536Z" glyph-name="abreve" horiz-adv-x="456" unicode="&#259;" /><glyph d="M32 92C32 24 80 -12 152 -12C220 -12 256 28 276 60C280 20 308 -12 352 -12C396 -12 424 4 448 36V48C436 40 420 36 404 36C384 36 368 48 368 80V332C368 432 328 480 224 480C168 480 119 452 88 424C61 402 40 380 40 352C40 320 60 304 84 304C112 304 132 324 132 352C132 376 124 396 116 416C136 424 156 432 184 432C240 432 272 392 272 316V244L188 224C90 199 32 164 32 92ZM124 112C124 164 167 183 224 204L272 220V68C256 56 232 44 196 44C152 44 124 68 124 112ZM94 536H110L210 600H214L310 536H326L218 668H206Z" glyph-name="acircumflex" horiz-adv-x="456" unicode="&#226;" /><glyph d="M212 536H228L332 608C350 621 360 632 360 648C360 664 348 676 332 676C318 676 305 669 288 644Z" glyph-name="acute" horiz-adv-x="512" unicode="&#180;" /><glyph d="M32 92C32 24 80 -12 152 -12C220 -12 256 28 276 60C280 20 308 -12 352 -12C396 -12 424 4 448 36V48C436 40 420 36 404 36C384 36 368 48 368 80V332C368 432 328 480 224 480C168 480 119 452 88 424C61 402 40 380 40 352C40 320 60 304 84 304C112 304 132 324 132 352C132 376 124 396 116 416C136 424 156 432 184 432C240 432 272 392 272 316V244L188 224C90 199 32 164 32 92ZM124 112C124 164 167 183 224 204L272 220V68C256 56 232 44 196 44C152 44 124 68 124 112ZM284 536C308 536 328 552 328 580C328 608 308 624 284 624C260 624 240 608 240 580C240 552 260 536 284 536ZM140 536C164 536 184 552 184 580C184 608 164 624 140 624C116 624 96 608 96 580C96 552 116 536 140 536Z" glyph-name="adieresis" horiz-adv-x="456" unicode="&#228;" /><glyph d="M32 92C32 20 80 -12 160 -12C239 -12 287 35 311 79C347 22 405 -12 480 -12C572 -12 628 44 644 108C620 76 576 52 524 52C428 52 372 116 372 256V292L646 288C651 304 652 321 652 332C652 424 584 480 484 480C432 480 383 459 345 422C324 461 284 480 224 480C168 480 119 452 88 424C61 402 40 380 40 352C40 320 60 304 84 304C112 304 132 324 132 352C132 376 124 396 116 416C136 424 156 432 184 432C240 432 272 392 272 316V244L188 224C90 199 32 164 32 92ZM305 89C277 63 235 44 200 44C156 44 124 64 124 112C124 164 167 183 224 204L272 220C274 169 285 125 305 89ZM376 312C390 393 428 448 484 448C540 448 568 400 568 324Z" glyph-name="ae" horiz-adv-x="672" unicode="&#230;" /><glyph d="M32 92C32 20 80 -12 160 -12C239 -12 287 35 311 79C347 22 405 -12 480 -12C572 -12 628 44 644 108C620 76 576 52 524 52C428 52 372 116 372 256V292L646 288C651 304 652 321 652 332C652 424 584 480 484 480C432 480 383 459 345 422C324 461 284 480 224 480C168 480 119 452 88 424C61 402 40 380 40 352C40 320 60 304 84 304C112 304 132 324 132 352C132 376 124 396 116 416C136 424 156 432 184 432C240 432 272 392 272 316V244L188 224C90 199 32 164 32 92ZM305 89C277 63 235 44 200 44C156 44 124 64 124 112C124 164 167 183 224 204L272 220C274 169 285 125 305 89ZM376 312C390 393 428 448 484 448C540 448 568 400 568 324ZM288 536H304L408 608C426 621 436 632 436 648C436 664 424 676 408 676C394 676 381 669 364 644Z" glyph-name="aeacute" horiz-adv-x="672" unicode="&#509;" /><glyph d="M32 92C32 24 80 -12 152 -12C220 -12 256 28 276 60C280 20 308 -12 352 -12C396 -12 424 4 448 36V48C436 40 420 36 404 36C384 36 368 48 368 80V332C368 432 328 480 224 480C168 480 119 452 88 424C61 402 40 380 40 352C40 320 60 304 84 304C112 304 132 324 132 352C132 376 124 396 116 416C136 424 156 432 184 432C240 432 272 392 272 316V244L188 224C90 199 32 164 32 92ZM124 112C124 164 167 183 224 204L272 220V68C256 56 232 44 196 44C152 44 124 68 124 112ZM240 536H256L180 644C162 668 150 676 136 676C120 676 108 664 108 648C108 632 118 621 136 608Z" glyph-name="agrave" horiz-adv-x="456" unicode="&#224;" /><glyph d="M32 92C32 24 80 -12 152 -12C220 -12 256 28 276 60C280 20 308 -12 352 -12C396 -12 424 4 448 36V48C436 40 420 36 404 36C384 36 368 48 368 80V332C368 432 328 480 224 480C168 480 119 452 88 424C61 402 40 380 40 352C40 320 60 304 84 304C112 304 132 324 132 352C132 376 124 396 116 416C136 424 156 432 184 432C240 432 272 392 272 316V244L188 224C90 199 32 164 32 92ZM124 112C124 164 167 183 224 204L272 220V68C256 56 232 44 196 44C152 44 124 68 124 112ZM104 536H320V580H104Z" glyph-name="amacron" horiz-adv-x="456" unicode="&#257;" /><glyph d="M144 356 180 316C106 293 40 242 40 160C40 60 112 -12 244 -12C314 -12 372 16 416 57L428 44C465 4 500 -12 540 -12C576 -12 604 0 624 12V24C572 24 517 79 473 127C504 178 520 233 520 276C520 304 528 316 556 320L588 324V348H408V324L436 320C468 315 472 304 472 276C472 226 463 185 449 152L269 350C339 368 420 416 420 504C420 596 344 636 252 636C164 636 84 588 84 488C84 428 120 382 144 356ZM280 44C200 44 136 92 136 180C136 223 152 274 191 304L395 80C362 55 321 44 280 44ZM176 508C176 564 200 608 252 608C304 608 332 568 332 508C332 447 310 393 259 360L220 404C191 435 176 464 176 508Z" glyph-name="ampersand" horiz-adv-x="624" unicode="&amp;" /><glyph d="M252 -116C252 -164 300 -184 352 -184C380 -184 400 -176 412 -168V-148C400 -156 380 -160 364 -160C328 -160 308 -144 308 -108C308 -63 363 -29 403 -2C420 5 435 18 448 36V48C436 40 420 36 404 36C384 36 368 48 368 80V332C368 432 328 480 224 480C168 480 119 452 88 424C61 402 40 380 40 352C40 320 60 304 84 304C112 304 132 324 132 352C132 376 124 396 116 416C136 424 156 432 184 432C240 432 272 392 272 316V244L188 224C90 199 32 164 32 92C32 24 80 -12 152 -12C220 -12 256 28 276 60C280 20 308 -12 352 -12H358C311 -36 252 -75 252 -116ZM124 112C124 164 167 183 224 204L272 220V68C256 56 232 44 196 44C152 44 124 68 124 112Z" glyph-name="aogonek" horiz-adv-x="456" unicode="&#261;" /><glyph d="M68 360H92C96 386 121 424 160 424C215 424 276 352 356 352C425 352 464 416 464 472H440C436 446 412 408 372 408C316 408 254 480 176 480C107 480 68 416 68 360ZM68 164H92C96 190 121 228 160 228C215 228 276 156 356 156C425 156 464 220 464 276H440C436 250 412 212 372 212C316 212 254 284 176 284C107 284 68 220 68 164Z" glyph-name="approxequal" horiz-adv-x="528" unicode="&#8776;" /><glyph d="M32 92C32 24 80 -12 152 -12C220 -12 256 28 276 60C280 20 308 -12 352 -12C396 -12 424 4 448 36V48C436 40 420 36 404 36C384 36 368 48 368 80V332C368 432 328 480 224 480C168 480 119 452 88 424C61 402 40 380 40 352C40 320 60 304 84 304C112 304 132 324 132 352C132 376 124 396 116 416C136 424 156 432 184 432C240 432 272 392 272 316V244L188 224C90 199 32 164 32 92ZM124 112C124 164 167 183 224 204L272 220V68C256 56 232 44 196 44C152 44 124 68 124 112ZM212 536C256 536 296 564 296 608C296 652 256 680 212 680C168 680 128 652 128 608C128 564 168 536 212 536ZM212 552C184 552 168 576 168 608C168 640 184 664 212 664C240 664 256 640 256 608C256 576 240 552 212 552Z" glyph-name="aring" horiz-adv-x="456" unicode="&#229;" /><glyph d="M85 328 260 568H264L439 328H488L280 620H244L36 328Z" glyph-name="asciicircum" horiz-adv-x="528" unicode="^" /><glyph d="M68 256H92C96 282 121 320 160 320C215 320 276 248 356 248C425 248 464 312 464 368H440C436 342 412 304 372 304C316 304 254 376 176 376C107 376 68 312 68 256Z" glyph-name="asciitilde" horiz-adv-x="528" unicode="~" /><glyph d="M92 364 176 416 236 336 248 344 244 440 340 452 344 468 256 508 296 604 284 612 204 560 144 636 128 632 136 536 36 520 32 508 120 460 84 372Z" glyph-name="asterisk" horiz-adv-x="376" unicode="*" /><glyph d="M40 228C40 1 188 -184 444 -184C518 -184 592 -160 644 -124L632 -104C589 -129 520 -148 444 -148C230 -148 104 16 104 228C104 430 228 596 444 596C660 596 792 467 792 228C792 108 734 -4 664 -4C620 -4 604 24 604 96V332C604 432 564 480 460 480C404 480 356 451 324 424C298 401 276 380 276 352C276 320 296 304 320 304C348 304 368 324 368 352C368 376 360 396 352 416C372 424 392 432 420 432C476 432 508 392 508 316V244L424 224C326 201 268 164 268 92C268 24 316 -12 388 -12C455 -12 491 27 511 59H512C519 11 553 -40 632 -40C761 -40 852 95 852 228C852 518 660 636 444 636C232 636 40 473 40 228ZM360 112C360 164 402 185 460 204L508 220V68C492 56 468 44 432 44C388 44 360 68 360 112Z" glyph-name="at" horiz-adv-x="892" unicode="@" /><glyph d="M32 92C32 24 80 -12 152 -12C220 -12 256 28 276 60C280 20 308 -12 352 -12C396 -12 424 4 448 36V48C436 40 420 36 404 36C384 36 368 48 368 80V332C368 432 328 480 224 480C168 480 119 452 88 424C61 402 40 380 40 352C40 320 60 304 84 304C112 304 132 324 132 352C132 376 124 396 116 416C136 424 156 432 184 432C240 432 272 392 272 316V244L188 224C90 199 32 164 32 92ZM124 112C124 164 167 183 224 204L272 220V68C256 56 232 44 196 44C152 44 124 68 124 112ZM98 540H114C114 568 126 592 154 592C190 592 214 536 254 536C306 536 326 588 326 640H310C310 612 298 588 270 588C234 588 210 644 170 644C118 644 98 592 98 540Z" glyph-name="atilde" horiz-adv-x="456" unicode="&#227;" /><glyph d="M88 -8H112C124 16 144 40 168 52C188 20 232 -12 292 -12C420 -12 516 88 516 244C516 392 452 480 328 480C248 480 204 428 184 392V708H180C164 696 122 690 100 688L24 680V660L52 652C77 645 88 636 88 612ZM184 120V380C204 404 240 420 276 420C364 420 416 354 416 232C416 112 364 32 284 32C228 32 184 60 184 120Z" glyph-name="b" horiz-adv-x="548" unicode="b" /><glyph d="M260 -76H300L56 688H16Z" glyph-name="backslash" horiz-adv-x="316" unicode="\" /><glyph d="M124 -272H168V728H124Z" glyph-name="bar" horiz-adv-x="292" unicode="|" /><glyph d="M196 -72C196 -183 250 -248 396 -248V-224C321 -224 264 -189 264 -92V104C264 195 234 240 148 252C234 262 264 332 264 408V556C264 652 317 684 392 684V708C245 708 196 643 196 532V388C196 290 133 256 52 256V244C133 244 196 212 196 124Z" glyph-name="braceleft" horiz-adv-x="448" unicode="{" /><glyph d="M196 92C196 -19 250 -84 396 -84V-60C321 -60 264 -25 264 72V168C264 259 234 304 148 316C234 326 264 396 264 472V556C264 652 317 684 392 684V708C245 708 196 643 196 532V452C196 354 133 320 52 320V308C133 308 196 276 196 188Z" glyph-name="braceleft.cap" horiz-adv-x="448" /><glyph d="M184 -92C184 -189 127 -224 52 -224V-248C198 -248 252 -183 252 -72V124C252 212 315 244 396 244V256C314 256 252 290 252 388V532C252 643 203 708 56 708V684C131 684 184 652 184 556V408C184 332 214 261 300 252C214 239 184 195 184 104Z" glyph-name="braceright" horiz-adv-x="448" unicode="}" /><glyph d="M52 -60V-84C198 -84 252 -19 252 92V188C252 276 315 308 396 308V320C315 320 252 354 252 452V532C252 643 203 708 56 708V684C131 684 184 652 184 556V472C184 396 214 326 300 316C214 304 184 259 184 168V72C184 -25 127 -60 52 -60Z" glyph-name="braceright.cap" horiz-adv-x="448" /><glyph d="M80 -240H260V-184L148 -204V664L256 648V700H80Z" glyph-name="bracketleft" horiz-adv-x="284" unicode="[" /><glyph d="M80 -84H260V-28L148 -48V664L256 648V700H80Z" glyph-name="bracketleft.cap" horiz-adv-x="284" /><glyph d="M24 -184V-240H204V700H28V648L136 664V-204Z" glyph-name="bracketright" horiz-adv-x="284" unicode="]" /><glyph d="M24 -28V-84H204V700H28V648L136 664V-48Z" glyph-name="bracketright.cap" horiz-adv-x="284" /><glyph d="M256 536C328 536 360 584 360 640H348C348 608 316 576 256 576C196 576 164 608 164 640H152C152 584 184 536 256 536Z" glyph-name="breve" horiz-adv-x="512" unicode="&#728;" /><glyph d="M124 376H168V728H124ZM124 120V-272H168V120Z" glyph-name="brokenbar" horiz-adv-x="294" unicode="&#166;" /><glyph d="M168 136C232 136 284 188 284 252C284 317 232 368 168 368C103 368 52 317 52 252C52 188 103 136 168 136Z" glyph-name="bullet" horiz-adv-x="337" unicode="&#8226;" /><glyph d="M168 200C232 200 284 252 284 316C284 381 232 432 168 432C103 432 52 381 52 316C52 252 103 200 168 200Z" glyph-name="bullet.cap" horiz-adv-x="337" /><glyph d="M36 236C36 92 112 -12 244 -12C336 -12 388 40 408 108C384 76 340 52 288 52C192 52 136 116 136 256C136 380 192 448 256 448C270 448 286 442 292 436C296 372 316 336 360 336C389 336 408 356 408 388C408 440 352 480 264 480C148 480 36 392 36 236Z" glyph-name="c" horiz-adv-x="432" unicode="c" /><glyph d="M36 236C36 92 112 -12 244 -12C336 -12 388 40 408 108C384 76 340 52 288 52C192 52 136 116 136 256C136 380 192 448 256 448C270 448 286 442 292 436C296 372 316 336 360 336C389 336 408 356 408 388C408 440 352 480 264 480C148 480 36 392 36 236ZM208 536H224L328 608C346 621 356 632 356 648C356 664 344 676 328 676C314 676 301 669 284 644Z" glyph-name="cacute" horiz-adv-x="432" unicode="&#263;" /><glyph d="M250 536H262L370 668H354L258 604H254L154 668H138Z" glyph-name="caron" horiz-adv-x="512" unicode="&#711;" /><glyph d="M263 528C286 528 305 548 305 573C305 599 286 615 260 618C260 644 282 688 305 708H273C241 679 215 634 215 580C215 551 231 528 263 528Z" glyph-name="caronquoteleft" horiz-adv-x="512" /><glyph d="M215 528H247C279 557 305 602 305 656C305 685 289 708 257 708C234 708 215 688 215 663C215 637 234 621 260 618C260 592 238 548 215 528Z" glyph-name="caronquoteright" horiz-adv-x="512" /><glyph d="M36 236C36 92 112 -12 244 -12C336 -12 388 40 408 108C384 76 340 52 288 52C192 52 136 116 136 256C136 380 192 448 256 448C270 448 286 442 292 436C296 372 316 336 360 336C389 336 408 356 408 388C408 440 352 480 264 480C148 480 36 392 36 236ZM246 536H258L366 668H350L254 604H250L150 668H134Z" glyph-name="ccaron" horiz-adv-x="432" unicode="&#269;" /><glyph d="M188 -68C244 -76 276 -88 276 -120C276 -148 256 -164 216 -164C192 -164 168 -156 152 -148V-168C168 -176 192 -184 224 -184C284 -184 332 -164 332 -112C332 -64 280 -44 228 -37L246 -12C337 -11 388 40 408 108C384 76 340 52 288 52C192 52 136 116 136 256C136 380 192 448 256 448C270 448 286 442 292 436C296 372 316 336 360 336C389 336 408 356 408 388C408 440 352 480 264 480C148 480 36 392 36 236C36 98 105 -2 226 -11Z" glyph-name="ccedilla" horiz-adv-x="432" unicode="&#231;" /><glyph d="M36 236C36 92 112 -12 244 -12C336 -12 388 40 408 108C384 76 340 52 288 52C192 52 136 116 136 256C136 380 192 448 256 448C270 448 286 442 292 436C296 372 316 336 360 336C389 336 408 356 408 388C408 440 352 480 264 480C148 480 36 392 36 236ZM134 536H150L250 600H254L350 536H366L258 668H246Z" glyph-name="ccircumflex" horiz-adv-x="432" unicode="&#265;" /><glyph d="M36 236C36 92 112 -12 244 -12C336 -12 388 40 408 108C384 76 340 52 288 52C192 52 136 116 136 256C136 380 192 448 256 448C270 448 286 442 292 436C296 372 316 336 360 336C389 336 408 356 408 388C408 440 352 480 264 480C148 480 36 392 36 236ZM252 536C280 536 300 560 300 588C300 616 280 640 252 640C224 640 204 616 204 588C204 560 224 536 252 536Z" glyph-name="cdotaccent" horiz-adv-x="432" unicode="&#267;" /><glyph d="M200 -68C256 -76 288 -88 288 -120C288 -148 268 -164 228 -164C204 -164 180 -156 164 -148V-168C180 -176 204 -184 236 -184C296 -184 344 -164 344 -112C344 -64 292 -44 240 -37L272 8H252Z" glyph-name="cedilla" horiz-adv-x="512" unicode="&#184;" /><glyph d="M64 236C64 104 132 18 232 -5L216 -92H248L263 -10C273 -11 282 -12 292 -12C396 -12 452 44 472 112C448 80 388 52 336 52C315 52 295 55 277 60L350 441L364 436C368 372 388 336 432 336C461 336 480 356 480 388C480 431 425 466 356 476L372 556H340L325 479C320 479 316 480 312 480C188 480 64 392 64 236ZM164 256C164 380 232 448 304 448C309 448 314 448 319 447L247 72C195 101 164 161 164 256Z" glyph-name="cent" horiz-adv-x="528" unicode="&#162;" /><glyph d="M24 236C24 104 92 18 192 -5L176 -92H208L223 -10C233 -11 242 -12 252 -12C356 -12 412 44 432 112C408 80 348 52 296 52C275 52 255 55 237 60L310 441L324 436C328 372 348 336 392 336C421 336 440 356 440 388C440 431 385 466 316 476L332 556H300L285 479C280 479 276 480 272 480C148 480 24 392 24 236ZM124 256C124 380 192 448 264 448C269 448 274 448 279 447L207 72C155 101 124 161 124 256Z" glyph-name="cent.PPF" horiz-adv-x="452" /><glyph d="M34 121C34 51 77 8 136 -3L127 -45H147L156 -5C160 -6 165 -6 170 -6C231 -6 266 25 278 62V66C265 51 233 40 203 40C190 40 178 41 167 44L205 217C208 216 210 215 212 215C214 181 227 160 253 160C270 160 283 173 283 191C283 217 249 235 211 241L220 281H201L192 244H184C107 244 34 203 34 121ZM106 131C106 190 142 220 181 220H187L148 51C122 64 106 90 106 131Z" glyph-name="cent.denominator" horiz-adv-x="304" /><glyph d="M170 302C231 302 266 333 278 370V374C265 359 233 348 203 348C190 348 178 349 167 352L205 525C208 524 210 523 212 523C214 489 227 468 253 468C270 468 283 481 283 499C283 525 249 543 211 549L220 589H201L192 552H184C107 552 34 511 34 429C34 359 77 316 136 305L127 263H147L156 302ZM106 439C106 498 142 528 181 528H187L148 359C122 372 106 398 106 439Z" glyph-name="cent.numerator" horiz-adv-x="304" /><glyph d="M138 536H154L254 600H258L354 536H370L262 668H250Z" glyph-name="circumflex" horiz-adv-x="512" unicode="&#710;" /><glyph d="M92 292C124 292 148 316 148 348C148 380 124 404 92 404C60 404 36 380 36 348C36 316 60 292 92 292ZM36 44C36 12 60 -12 92 -12C124 -12 148 12 148 44C148 76 124 100 92 100C60 100 36 76 36 44Z" glyph-name="colon" horiz-adv-x="184" unicode=":" /><glyph d="M36 44C36 12 60 -8 92 -12C92 -44 64 -100 36 -124H76C116 -88 148 -32 148 36C148 72 128 100 88 100C60 100 36 76 36 44Z" glyph-name="comma" horiz-adv-x="184" unicode="," /><glyph d="M215 -95C215 -121 234 -137 260 -140C260 -166 238 -210 215 -230H247C279 -201 305 -156 305 -102C305 -73 289 -50 257 -50C234 -50 215 -70 215 -95Z" glyph-name="commaaccent" horiz-adv-x="512" unicode="&#63171;" /><glyph d="M28 312C28 124 175 -12 356 -12C537 -12 684 124 684 312C684 500 537 636 356 636C175 636 28 500 28 312ZM80 312C80 468 195 596 356 596C517 596 632 468 632 312C632 156 517 28 356 28C195 28 80 156 80 312ZM160 312C160 218 230 132 368 132C421 132 463 142 488 152L508 256H488C480 232 462 188 448 176C431 166 408 156 372 156C296 156 248 220 248 316C248 397 275 468 380 468C424 468 440 457 456 444C469 429 486 384 492 360H512L504 488H488L472 476C441 488 419 492 380 492C254 492 160 417 160 312Z" glyph-name="copyright" horiz-adv-x="712" unicode="&#169;" /><glyph d="M116 128 157 180C187 159 224 148 264 148C303 148 341 159 371 180L412 128L460 176L409 217C430 246 444 282 444 324C444 365 430 402 409 430L460 472L412 520L371 467C341 488 303 500 264 500C224 500 187 488 157 467L116 520L68 472L119 430C97 402 84 365 84 324C84 282 97 246 119 217L68 176ZM264 192C197 192 136 242 136 324C136 406 197 456 264 456C331 456 392 406 392 324C392 242 331 192 264 192Z" glyph-name="currency" horiz-adv-x="528" unicode="&#164;" /><glyph d="M80 128 121 180C151 159 188 148 228 148C267 148 305 159 335 180L376 128L424 176L373 217C394 246 408 282 408 324C408 365 394 402 373 430L424 472L376 520L335 467C305 488 267 500 228 500C188 500 151 488 121 467L80 520L32 472L83 430C61 402 48 365 48 324C48 282 61 246 83 217L32 176ZM228 192C161 192 100 242 100 324C100 406 161 456 228 456C295 456 356 406 356 324C356 242 295 192 228 192Z" glyph-name="currency.PPF" horiz-adv-x="456" /><glyph d="M228 -12C312 -12 352 40 368 68V-12H372C392 -4 423 1 444 4L528 16V36L496 40C470 43 464 51 464 76V708H460C444 696 405 691 384 688L292 676V656L324 652C354 648 368 636 368 612V416C352 452 312 480 248 480C132 480 36 384 36 236C36 80 112 -12 228 -12ZM284 48C204 48 136 100 136 248C136 364 188 436 280 436C318 436 348 424 368 400V80C348 60 320 48 284 48Z" glyph-name="d" horiz-adv-x="552" unicode="d" /><glyph d="M180 -212H236V432H376V480H236V636H180V480H40V432H180Z" glyph-name="dagger" horiz-adv-x="416" unicode="&#8224;" /><glyph d="M40 0V-52H180V-212H236V-52H376V0H236V428H376V480H236V636H180V480H40V428H180V0Z" glyph-name="daggerdbl" horiz-adv-x="416" unicode="&#8225;" /><glyph d="M220 -12C304 -12 344 40 360 68V-12H364C384 -4 415 1 436 4L520 16V36L488 40C462 43 456 51 456 76V708H452C436 696 397 691 376 688L284 676V656L316 652C346 648 360 636 360 612V416C344 452 304 480 240 480C124 480 28 384 28 236C28 80 104 -12 220 -12ZM276 48C196 48 128 100 128 248C128 364 180 436 272 436C310 436 340 424 360 400V80C340 60 312 48 276 48ZM503 528H535C567 557 593 602 593 656C593 685 577 708 545 708C522 708 503 688 503 663C503 637 522 621 548 618C548 592 526 548 503 528Z" glyph-name="dcaron" horiz-adv-x="544" unicode="&#271;" /><glyph d="M220 556H360V416C344 452 304 480 240 480C124 480 28 384 28 236C28 80 104 -12 220 -12C304 -12 344 40 360 68V-12H364C384 -4 415 1 436 4L520 16V36L488 40C462 43 456 51 456 76V556H524V584H456V708H452C436 696 397 691 376 688L284 676V656L316 652C346 648 360 636 360 612V584H220ZM276 48C196 48 128 100 128 248C128 364 180 436 272 436C310 436 340 424 360 400V80C340 60 312 48 276 48Z" glyph-name="dcroat" horiz-adv-x="544" unicode="&#273;" /><glyph d="M200 332C284 332 352 396 352 484C352 572 284 636 200 636C116 636 48 572 48 484C48 396 116 332 200 332ZM200 372C140 372 100 419 100 484C100 549 140 596 200 596C260 596 300 549 300 484C300 419 260 372 200 372Z" glyph-name="degree" horiz-adv-x="400" unicode="&#176;" /><glyph d="M328 536C352 536 372 552 372 580C372 608 352 624 328 624C304 624 284 608 284 580C284 552 304 536 328 536ZM184 536C208 536 228 552 228 580C228 608 208 624 184 624C160 624 140 608 140 580C140 552 160 536 184 536Z" glyph-name="dieresis" horiz-adv-x="512" unicode="&#168;" /><glyph d="M264 436C295 436 320 460 320 492C320 521 295 548 264 548C233 548 208 524 208 492C208 463 233 436 264 436ZM36 296H492V340H36ZM208 140C208 111 233 84 264 84C295 84 320 108 320 140C320 169 295 196 264 196C233 196 208 172 208 140Z" glyph-name="divide" horiz-adv-x="528" unicode="&#247;" /><glyph d="M72 -12H92L108 12C131 2 171 -8 216 -11L208 -92H236L244 -12C376 -12 468 60 468 176C468 264 412 308 328 352L286 374L304 603C330 597 354 585 368 572C388 548 408 496 416 440H440L432 628H416L396 612C378 621 343 630 306 634L312 708H284L278 636H268C168 636 64 580 64 476C64 404 100 360 184 316L245 284L219 18C187 23 151 37 136 56C112 96 100 152 92 212H64C68 144 72 32 72 -12ZM284 264C338 236 372 204 372 144C372 69 317 17 247 16L273 270ZM156 504C156 572 216 608 264 608C268 608 272 608 276 607L259 388L228 404C178 430 156 456 156 504Z" glyph-name="dollar" horiz-adv-x="528" unicode="$" /><glyph d="M48 -12H68L84 12C107 2 147 -8 192 -11L184 -92H212L220 -12C352 -12 444 60 444 176C444 264 388 308 304 352L262 374L280 603C306 597 330 585 344 572C364 548 384 496 392 440H416L408 628H392L372 612C354 621 319 630 282 634L288 708H260L254 636H244C144 636 40 580 40 476C40 404 76 360 160 316L221 284L195 18C163 23 127 37 112 56C88 96 76 152 68 212H40C44 144 48 32 48 -12ZM260 264C314 236 348 204 348 144C348 69 293 17 223 16L249 270ZM132 504C132 572 192 608 240 608C244 608 248 608 252 607L235 388L204 404C154 430 132 456 132 504Z" glyph-name="dollar.PPF" horiz-adv-x="468" /><glyph d="M39 -6H49C50 -5 60 6 61 6C77 0 99 -4 124 -6L120 -45H138L142 -6C219 -5 279 31 279 93C279 141 247 164 201 185L174 196L182 295C199 292 213 286 221 280C233 268 245 244 249 216H264L259 316H250L238 308C227 312 206 317 184 319L188 356H170C169 347 167 334 166 320H163C101 320 35 294 35 234C35 195 58 170 104 149L139 133L126 18C108 20 88 28 78 37C63 56 55 84 50 114H34C35 91 39 9 39 -6ZM159 125C190 112 208 97 208 73C208 42 182 20 145 18L156 126ZM155 204 145 209C117 221 103 234 103 253C103 282 134 297 163 297H164Z" glyph-name="dollar.denominator" horiz-adv-x="304" /><glyph d="M39 302H49C50 303 60 314 61 314C77 308 99 303 124 302L120 263H138L142 302C219 303 279 339 279 401C279 449 247 472 201 493L174 504L182 603C199 600 213 594 221 588C233 576 245 552 249 524H264L259 624H250L238 616C227 620 206 625 184 627L188 664H170C169 655 167 642 166 628H163C101 628 35 602 35 542C35 503 58 478 104 457L139 441L126 326C108 328 88 336 78 345C63 364 55 392 50 422H34C35 399 39 317 39 302ZM159 433C190 420 208 405 208 381C208 350 182 328 145 326L156 434ZM155 512 145 517C117 529 103 542 103 561C103 590 134 605 163 605H164Z" glyph-name="dollar.numerator" horiz-adv-x="304" /><glyph d="M256 536C284 536 304 560 304 588C304 616 284 640 256 640C228 640 208 616 208 588C208 560 228 536 256 536Z" glyph-name="dotaccent" horiz-adv-x="512" unicode="&#729;" /><glyph d="M28 0H268V24L236 28C204 32 196 40 196 64V480H192C176 468 134 462 112 460L36 452V432L64 424C89 417 100 408 100 384V64C100 40 92 32 60 28L28 24Z" glyph-name="dotlessi" horiz-adv-x="284" unicode="&#305;" /><glyph d="M92 -24C92 -160 52 -224 -20 -224V-248C124 -248 188 -164 188 8V480H184C168 468 126 462 104 460L24 452V432L56 424C81 417 92 408 92 384Z" glyph-name="dotlessj" horiz-adv-x="272" unicode="&#63166;" /><glyph d="M36 236C36 88 116 -12 244 -12C336 -12 392 44 408 108C384 76 340 52 288 52C192 52 136 116 136 256V292L410 288C415 304 416 321 416 332C416 424 348 480 248 480C128 480 36 380 36 236ZM140 312C154 393 192 448 248 448C304 448 332 400 332 324Z" glyph-name="e" horiz-adv-x="444" unicode="e" /><glyph d="M36 236C36 88 116 -12 244 -12C336 -12 392 44 408 108C384 76 340 52 288 52C192 52 136 116 136 256V292L410 288C415 304 416 321 416 332C416 424 348 480 248 480C128 480 36 380 36 236ZM140 312C154 393 192 448 248 448C304 448 332 400 332 324ZM204 536H220L324 608C342 621 352 632 352 648C352 664 340 676 324 676C310 676 297 669 280 644Z" glyph-name="eacute" horiz-adv-x="444" unicode="&#233;" /><glyph d="M36 236C36 88 116 -12 244 -12C336 -12 392 44 408 108C384 76 340 52 288 52C192 52 136 116 136 256V292L410 288C415 304 416 321 416 332C416 424 348 480 248 480C128 480 36 380 36 236ZM140 312C154 393 192 448 248 448C304 448 332 400 332 324ZM248 536C320 536 352 584 352 640H340C340 608 308 576 248 576C188 576 156 608 156 640H144C144 584 176 536 248 536Z" glyph-name="ebreve" horiz-adv-x="444" unicode="&#277;" /><glyph d="M36 236C36 88 116 -12 244 -12C336 -12 392 44 408 108C384 76 340 52 288 52C192 52 136 116 136 256V292L410 288C415 304 416 321 416 332C416 424 348 480 248 480C128 480 36 380 36 236ZM140 312C154 393 192 448 248 448C304 448 332 400 332 324ZM242 536H254L362 668H346L250 604H246L146 668H130Z" glyph-name="ecaron" horiz-adv-x="444" unicode="&#283;" /><glyph d="M36 236C36 88 116 -12 244 -12C336 -12 392 44 408 108C384 76 340 52 288 52C192 52 136 116 136 256V292L410 288C415 304 416 321 416 332C416 424 348 480 248 480C128 480 36 380 36 236ZM140 312C154 393 192 448 248 448C304 448 332 400 332 324ZM130 536H146L246 600H250L346 536H362L254 668H242Z" glyph-name="ecircumflex" horiz-adv-x="444" unicode="&#234;" /><glyph d="M36 236C36 88 116 -12 244 -12C336 -12 392 44 408 108C384 76 340 52 288 52C192 52 136 116 136 256V292L410 288C415 304 416 321 416 332C416 424 348 480 248 480C128 480 36 380 36 236ZM140 312C154 393 192 448 248 448C304 448 332 400 332 324ZM320 536C344 536 364 552 364 580C364 608 344 624 320 624C296 624 276 608 276 580C276 552 296 536 320 536ZM176 536C200 536 220 552 220 580C220 608 200 624 176 624C152 624 132 608 132 580C132 552 152 536 176 536Z" glyph-name="edieresis" horiz-adv-x="444" unicode="&#235;" /><glyph d="M36 236C36 88 116 -12 244 -12C336 -12 392 44 408 108C384 76 340 52 288 52C192 52 136 116 136 256V292L410 288C415 304 416 321 416 332C416 424 348 480 248 480C128 480 36 380 36 236ZM140 312C154 393 192 448 248 448C304 448 332 400 332 324ZM248 536C276 536 296 560 296 588C296 616 276 640 248 640C220 640 200 616 200 588C200 560 220 536 248 536Z" glyph-name="edotaccent" horiz-adv-x="444" unicode="&#279;" /><glyph d="M36 236C36 88 116 -12 244 -12C336 -12 392 44 408 108C384 76 340 52 288 52C192 52 136 116 136 256V292L410 288C415 304 416 321 416 332C416 424 348 480 248 480C128 480 36 380 36 236ZM140 312C154 393 192 448 248 448C304 448 332 400 332 324ZM276 536H292L216 644C198 668 186 676 172 676C156 676 144 664 144 648C144 632 154 621 172 608Z" glyph-name="egrave" horiz-adv-x="444" unicode="&#232;" /><glyph d="M52 144C52 36 144 -12 264 -12C388 -12 476 56 476 168C476 244 433 287 356 328L324 344C396 368 468 404 468 496C468 581 397 636 272 636C168 636 72 580 72 476C72 392 117 353 180 320L205 307C126 287 52 239 52 144ZM260 280C338 241 376 212 376 136C376 52 324 12 264 12C196 12 148 52 148 152C148 217 177 275 218 301ZM168 508C168 580 216 612 272 612C336 612 380 572 380 496C380 445 357 383 311 350L276 368C218 397 168 424 168 508Z" glyph-name="eight" horiz-adv-x="528" unicode="8" /><glyph d="M32 144C32 36 124 -12 244 -12C368 -12 456 56 456 168C456 244 413 287 336 328L304 344C376 368 448 404 448 496C448 581 377 636 252 636C148 636 52 580 52 476C52 392 97 353 160 320L185 307C106 287 32 239 32 144ZM240 280C318 241 356 212 356 136C356 52 304 12 244 12C176 12 128 52 128 152C128 217 157 275 198 301ZM148 508C148 580 196 612 252 612C316 612 360 572 360 496C360 445 337 383 291 350L256 368C198 397 148 424 148 508Z" glyph-name="eight.PPF" horiz-adv-x="488" /><glyph d="M52 144C52 36 144 -12 264 -12C388 -12 476 56 476 168C476 244 433 287 356 328L324 344C396 368 468 404 468 496C468 581 397 636 272 636C168 636 72 580 72 476C72 392 117 353 180 320L205 307C126 287 52 239 52 144ZM260 280C338 241 376 212 376 136C376 52 324 12 264 12C196 12 148 52 148 152C148 217 177 275 218 301ZM168 508C168 580 216 612 272 612C336 612 380 572 380 496C380 445 357 383 311 350L276 368C218 397 168 424 168 508Z" glyph-name="eight.TOSF" horiz-adv-x="528" /><glyph d="M29 73C29 19 83 -6 152 -6C227 -6 282 30 282 88C282 133 252 155 209 175L202 177C241 188 275 208 275 251C275 293 232 320 159 320C94 320 36 292 36 235C36 190 66 166 104 150C63 140 29 117 29 73ZM163 195C131 208 104 222 104 255C104 285 129 299 159 299C193 299 217 282 217 250C217 228 207 202 183 186ZM92 77C92 103 105 128 125 141L148 131C191 113 211 98 211 68C211 34 184 16 152 16C117 16 92 34 92 77Z" glyph-name="eight.denominator" horiz-adv-x="304" /><glyph d="M152 302C227 302 282 338 282 396C282 441 252 463 209 483L202 485C241 496 275 516 275 559C275 601 232 628 159 628C94 628 36 600 36 543C36 498 66 474 104 458C63 448 29 425 29 381C29 327 83 302 152 302ZM183 494 163 503C131 516 104 530 104 563C104 593 129 607 159 607C193 607 217 590 217 558C217 536 207 510 183 494ZM152 324C117 324 92 342 92 385C92 411 105 436 125 449L148 439C191 421 211 406 211 376C211 342 184 324 152 324Z" glyph-name="eight.numerator" horiz-adv-x="304" /><glyph d="M32 144C32 40 117 -12 232 -12C351 -12 436 56 436 168C436 244 395 287 321 328L290 344C359 368 428 404 428 496C428 581 360 636 240 636C140 636 47 580 47 476C47 392 91 353 151 320L175 307C99 287 32 239 32 144ZM228 280C303 241 340 212 340 136C340 52 290 12 232 12C167 12 120 52 120 152C120 217 148 274 188 300ZM140 508C140 580 186 612 240 612C301 612 344 572 344 496C344 445 322 383 277 350L244 368C188 397 140 424 140 508Z" glyph-name="eight.oldstyle" horiz-adv-x="464" /><glyph d="M472 44C472 12 496 -12 528 -12C560 -12 584 12 584 44C584 76 560 100 528 100C496 100 472 76 472 44ZM256 44C256 12 280 -12 312 -12C344 -12 368 12 368 44C368 76 344 100 312 100C280 100 256 76 256 44ZM36 44C36 12 60 -12 92 -12C124 -12 148 12 148 44C148 76 124 100 92 100C60 100 36 76 36 44Z" glyph-name="ellipsis" horiz-adv-x="620" unicode="&#8230;" /><glyph d="M36 236C36 88 116 -12 244 -12C336 -12 392 44 408 108C384 76 340 52 288 52C192 52 136 116 136 256V292L410 288C415 304 416 321 416 332C416 424 348 480 248 480C128 480 36 380 36 236ZM140 312C154 393 192 448 248 448C304 448 332 400 332 324ZM140 536H356V580H140Z" glyph-name="emacron" horiz-adv-x="444" unicode="&#275;" /><glyph d="M32 228H716V284H32Z" glyph-name="emdash" horiz-adv-x="748" unicode="&#8212;" /><glyph d="M32 288H716V340H32Z" glyph-name="emdash.cap" horiz-adv-x="748" /><glyph d="M32 232H464V288H32Z" glyph-name="endash" horiz-adv-x="496" unicode="&#8211;" /><glyph d="M32 288H464V340H32Z" glyph-name="endash.cap" horiz-adv-x="496" /><glyph d="M276 -224V-248C420 -248 484 -164 484 8V328C484 425 428 476 340 476C260 476 216 424 196 376V480H192C176 468 134 462 112 460L36 452V432L64 424C89 417 100 408 100 384V64C100 40 92 32 60 28L28 24V0H268V24L236 28C204 32 196 40 196 64V364C216 392 256 416 296 416C360 416 388 380 388 300V-24C388 -160 348 -224 276 -224Z" glyph-name="eng" horiz-adv-x="564" unicode="&#331;" /><glyph d="M160 -116C160 -164 208 -184 260 -184C288 -184 308 -176 320 -168V-148C308 -156 288 -160 272 -160C236 -160 216 -144 216 -108C216 -60 280 -24 320 4H310C356 25 385 65 396 108C372 76 328 52 276 52C180 52 124 116 124 256V292L398 288C403 304 404 321 404 332C404 424 336 480 236 480C116 480 24 380 24 236C24 88 104 -12 232 -12C248 -12 263 -10 276 -7C228 -30 160 -72 160 -116ZM128 312C142 393 180 448 236 448C292 448 320 400 320 324Z" glyph-name="eogonek" horiz-adv-x="424" unicode="&#281;" /><glyph d="M36 388H492V432H36ZM36 192H492V236H36Z" glyph-name="equal" horiz-adv-x="528" unicode="=" /><glyph d="M250 -9C394 -9 479 118 479 324C479 417 458 555 362 627L437 686L411 722L322 652C261 684 184 697 98 697V658C173 653 222 647 271 611L189 545L217 512L305 581C354 529 366 462 372 408C346 447 306 471 238 471C126 471 40 387 40 241C40 85 121 -9 250 -9ZM249 25C163 25 140 135 140 234C140 321 182 420 270 420C313 420 346 400 374 370V295C374 181 361 25 249 25Z" glyph-name="eth" horiz-adv-x="531" unicode="&#240;" /><glyph d="M-11 110H49C63 36 111 -6 190 -6C261 -6 287 46 290 83H279C265 45 242 26 203 26C157 26 134 58 125 110H218L235 139H122V177H250L266 207H125C136 270 172 292 209 292C243 292 274 274 282 238L295 265C283 295 252 320 199 320C120 320 67 277 50 207H19L6 177H46C45 170 45 164 45 157V139H3Z" glyph-name="euro.denominator" horiz-adv-x="304" /><glyph d="M6 485H46C45 478 45 472 45 465V447H3L-11 418H49C63 344 111 302 190 302C261 302 287 354 290 391H279C265 353 242 334 203 334C157 334 134 366 125 418H218L235 447H122V485H250L266 515H125C136 578 172 600 209 600C243 600 274 582 282 546L295 573C283 603 252 628 199 628C120 628 67 585 50 515H19Z" glyph-name="euro.numerator" horiz-adv-x="304" /><glyph d="M96 200H120C120 256 140 468 172 616C160 624 136 636 108 636C80 636 56 624 44 616C76 468 96 256 96 200ZM48 44C48 12 72 -12 104 -12C136 -12 160 12 160 44C160 76 136 100 104 100C72 100 48 76 48 44Z" glyph-name="exclam" horiz-adv-x="216" unicode="!" /><glyph d="M112 368C144 368 168 392 168 424C168 456 144 480 112 480C80 480 56 456 56 424C56 392 80 368 112 368ZM44 -148C56 -156 80 -168 108 -168C136 -168 160 -156 172 -148C140 0 120 212 120 268H96C96 212 76 0 44 -148Z" glyph-name="exclamdown" horiz-adv-x="216" unicode="&#161;" /><glyph d="M112 524C144 524 168 548 168 580C168 612 144 636 112 636C80 636 56 612 56 580C56 548 80 524 112 524ZM44 8C56 0 80 -12 108 -12C136 -12 160 0 172 8C140 156 120 368 120 424H96C96 368 76 156 44 8Z" glyph-name="exclamdown.cap" horiz-adv-x="216" /><glyph d="M28 0H284V24L244 28C204 32 196 40 196 64V416H312V456H196V500C196 600 224 668 276 684C284 636 312 600 348 600C376 600 396 616 396 648C396 684 352 708 300 708C180 708 100 620 100 476V472C88 460 64 444 36 440V416H100V64C100 39 92 32 60 28L28 24Z" glyph-name="f" horiz-adv-x="312" unicode="f" /><glyph d="M28 0H268V24L236 28C204 32 196 39 196 64V412H296V452H196V500C196 616 244 684 316 684C384 684 388 616 388 580V-8H412C424 16 444 40 468 52C488 20 532 -12 592 -12C720 -12 816 88 816 244C816 392 752 480 628 480C548 480 504 428 484 392V708H480C470 701 448 695 427 690C402 701 370 708 332 708C200 708 100 636 100 476V468C88 456 64 440 36 436V412H100V64C100 39 92 32 60 28L28 24ZM484 120V380C504 404 540 420 576 420C664 420 716 354 716 232C716 112 664 32 584 32C528 32 484 60 484 120Z" glyph-name="f_b" horiz-adv-x="844" /><glyph d="M28 0H268V24L236 28C204 32 196 39 196 64V412H388V64C388 39 380 32 348 28L316 24V0H556V24L524 28C492 32 484 39 484 64V412H584V452H484V500C484 616 532 684 604 684C665 684 674 629 676 591V-8H700C712 16 732 40 756 52C776 20 820 -12 880 -12C1008 -12 1104 88 1104 244C1104 392 1040 480 916 480C836 480 792 428 772 392V708H768C758 701 736 695 715 690C690 701 658 708 620 708C561 708 509 694 469 664C449 690 404 708 340 708C208 708 100 644 100 476V468C88 456 64 440 36 436V412H100V64C100 39 92 32 60 28L28 24ZM772 120V380C792 404 828 420 864 420C952 420 1004 354 1004 232C1004 112 952 32 872 32C816 32 772 60 772 120ZM388 476V468C383 463 376 457 367 452H196V500C196 624 260 684 340 684C347 632 371 596 408 586C395 556 388 519 388 476Z" glyph-name="f_f_b" horiz-adv-x="1132" /><glyph d="M28 0H268V24L236 28C204 32 196 39 196 64V412H388V64C388 39 380 32 348 28L316 24V0H556V24L524 28C492 32 484 39 484 64V412H584V452H484V500C484 616 540 684 604 684C665 684 674 629 676 591V64C676 40 668 32 636 28L604 24V0H844V24L812 28C780 32 772 40 772 64V364C792 392 832 416 872 416C936 416 964 380 964 300V64C964 40 956 32 924 28L892 24V0H1132V24L1100 28C1068 32 1060 40 1060 64V328C1060 425 1004 476 916 476C836 476 792 424 772 376V708H768C758 701 736 695 715 690C690 701 658 708 620 708C561 708 509 694 469 664C449 690 404 708 340 708C208 708 100 644 100 476V468C88 456 64 440 36 436V412H100V64C100 39 92 32 60 28L28 24ZM388 476V468C383 463 376 457 367 452H196V500C196 624 260 684 340 684C347 632 371 596 408 586C395 556 388 519 388 476Z" glyph-name="f_f_h" horiz-adv-x="1148" /><glyph d="M564 -224V-248C708 -248 772 -164 772 8V480H768C752 468 710 462 688 460L608 452H484V500C484 624 548 684 628 684C636 624 664 584 712 584C744 584 760 600 760 632C760 676 716 708 628 708C567 708 512 695 469 664C450 690 405 708 340 708C208 708 100 644 100 476V468C88 456 64 440 36 436V412H100V64C100 39 92 32 60 28L28 24V0H268V24L236 28C204 32 196 39 196 64V412H388V64C388 39 380 32 348 28L316 24V0H556V24L524 28C492 32 484 39 484 64V412H676V-24C676 -160 636 -224 564 -224ZM388 476V468C383 463 376 457 367 452H196V500C196 624 260 684 340 684C347 632 371 596 408 586C395 556 388 519 388 476Z" glyph-name="f_f_j" horiz-adv-x="848" /><glyph d="M28 0H268V24L236 28C204 32 196 39 196 64V412H388V64C388 39 380 32 348 28L316 24V0H556V24L524 28C492 32 484 39 484 64V412H584V452H484V500C484 616 540 684 604 684C672 684 676 616 676 580V64C676 40 668 32 636 28L604 24V0H844V24L812 28C780 32 772 40 772 64V236C781 232 790 224 796 216L872 92C897 51 924 12 944 0H1068V24L1040 28C1008 44 979 90 952 132L868 272L984 392C1001 410 1015 417 1040 424L1068 432V456H880V432L916 424C936 419 939 410 924 392L840 288C824 268 800 254 772 249V708H768C758 701 736 695 715 690C690 701 658 708 620 708C561 708 509 694 469 664C449 690 404 708 340 708C208 708 100 644 100 476V468C88 456 64 440 36 436V412H100V64C100 39 92 32 60 28L28 24ZM388 476V468C383 463 376 457 367 452H196V500C196 624 260 684 340 684C347 632 371 596 408 586C395 556 388 519 388 476Z" glyph-name="f_f_k" horiz-adv-x="1068" /><glyph d="M660 104C660 32 700 -12 772 -12C836 -12 876 20 896 76C880 60 856 44 824 44C776 44 752 64 752 132V412H884V452H752V572H736L637 452H484V500C484 600 508 668 560 684C568 636 592 600 628 600C656 600 676 616 676 648C676 684 636 708 584 708C537 708 496 694 465 669C443 693 400 708 340 708C208 708 100 644 100 476V468C88 456 64 440 36 436V412H100V64C100 39 92 32 60 28L28 24V0H268V24L236 28C204 32 196 39 196 64V412H388V64C388 39 380 32 348 28L316 24V0H572V24L532 28C492 32 484 40 484 64V412H660ZM388 476V468C383 463 376 457 367 452H196V500C196 624 260 684 340 684C346 633 370 597 406 587C394 555 388 518 388 476Z" glyph-name="f_f_t" horiz-adv-x="892" /><glyph d="M604 0H844V24L812 28C780 32 772 40 772 64V328C772 425 716 476 628 476C548 476 504 424 484 376V708H480C470 701 448 695 427 690C402 701 370 708 332 708C200 708 100 636 100 476V468C88 456 64 440 36 436V412H100V64C100 39 92 32 60 28L28 24V0H268V24L236 28C204 32 196 39 196 64V412H296V452H196V500C196 616 252 684 316 684C377 684 386 629 388 591V64C388 40 380 32 348 28L316 24V0H556V24L524 28C492 32 484 40 484 64V364C504 392 544 416 584 416C648 416 676 380 676 300V64C676 40 668 32 636 28L604 24Z" glyph-name="f_h" horiz-adv-x="860" /><glyph d="M272 -224V-248C416 -248 480 -164 480 8V480H476C460 468 418 462 396 460L316 452H192V500C192 624 256 684 336 684C344 624 372 584 420 584C452 584 468 600 468 632C468 676 424 708 336 708C204 708 96 644 96 476V468C84 456 60 440 32 436V412H96V64C96 39 88 32 56 28L24 24V0H264V24L232 28C200 32 192 39 192 64V412H384V-24C384 -160 344 -224 272 -224Z" glyph-name="f_j" horiz-adv-x="564" /><glyph d="M28 0H268V24L236 28C204 32 196 39 196 64V412H296V452H196V500C196 616 252 684 316 684C377 684 386 629 388 591V64C388 40 380 32 348 28L316 24V0H556V24L524 28C492 32 484 40 484 64V236C493 232 502 224 508 216L584 92C609 51 636 12 656 0H780V24L752 28C720 44 691 90 664 132L580 272L696 392C713 410 727 417 752 424L780 432V456H592V432L628 424C648 419 651 410 636 392L552 288C536 268 512 254 484 249V708H480C470 701 448 695 427 690C402 701 370 708 332 708C200 708 100 636 100 476V468C88 456 64 440 36 436V412H100V64C100 39 92 32 60 28L28 24Z" glyph-name="f_k" horiz-adv-x="780" /><glyph d="M372 104C372 32 412 -12 484 -12C548 -12 588 20 608 76C592 60 568 44 536 44C488 44 464 64 464 132V412H596V452H464V572H448L349 452H196V500C196 600 220 668 272 684C280 636 304 600 340 600C368 600 388 616 388 648C388 684 348 708 296 708C176 708 100 620 100 476V468C88 456 64 440 36 436V412H100V64C100 39 92 32 60 28L28 24V0H284V24L244 28C204 32 196 40 196 64V412H372Z" glyph-name="f_t" horiz-adv-x="604" /><glyph d="M28 0H268V24L236 28C204 32 196 39 196 64V412H388V64C388 39 380 32 348 28L316 24V0H572V24L532 28C492 32 484 40 484 64V412H600V452H484V500C484 600 512 668 564 684C572 636 600 600 636 600C664 600 684 616 684 648C684 684 640 708 588 708C540 708 499 694 466 668C445 692 401 708 340 708C208 708 100 644 100 476V468C88 456 64 440 36 436V412H100V64C100 39 92 32 60 28L28 24ZM388 476V452H196V500C196 624 260 684 340 684C347 633 371 596 407 586C395 555 388 518 388 476Z" glyph-name="ff" horiz-adv-x="600" unicode="&#64256;" /><glyph d="M604 0H844V24L812 28C780 32 772 40 772 64V480H768C752 468 710 462 688 460L612 452H484V500C484 624 548 684 628 684C636 624 668 584 708 584C740 584 760 600 760 632C760 676 716 708 628 708C567 708 512 695 469 664C450 690 405 708 340 708C208 708 100 644 100 476V468C88 456 64 440 36 436V412H100V64C100 39 92 32 60 28L28 24V0H268V24L236 28C204 32 196 39 196 64V412H388V64C388 39 380 32 348 28L316 24V0H556V24L524 28C492 32 484 39 484 64V412H676V64C676 40 668 32 636 28L604 24ZM388 476V468C383 463 376 457 367 452H196V500C196 624 260 684 340 684C347 632 371 596 408 586C395 556 388 519 388 476Z" glyph-name="ffi" horiz-adv-x="860" unicode="&#64259;" /><glyph d="M28 0H268V24L236 28C204 32 196 39 196 64V412H388V64C388 39 380 32 348 28L316 24V0H556V24L524 28C492 32 484 39 484 64V412H584V452H484V500C484 616 540 684 604 684C672 684 676 616 676 580V64C676 40 668 32 636 28L604 24V0H844V24L812 28C780 32 772 40 772 64V708H768C758 701 736 695 715 690C690 701 658 708 620 708C561 708 509 694 469 664C449 690 404 708 340 708C208 708 100 644 100 476V468C88 456 64 440 36 436V412H100V64C100 39 92 32 60 28L28 24ZM388 476V468C383 463 376 457 367 452H196V500C196 624 260 684 340 684C347 632 371 596 408 586C395 556 388 519 388 476Z" glyph-name="ffl" horiz-adv-x="860" unicode="&#64260;" /><glyph d="M316 0H556V24L524 28C492 32 484 40 484 64V480H480C464 468 422 462 400 460L324 452H196V500C196 624 260 684 340 684C348 624 380 584 420 584C452 584 472 600 472 632C472 676 428 708 340 708C208 708 100 644 100 476V468C88 456 64 440 36 436V412H100V64C100 39 92 32 60 28L28 24V0H268V24L236 28C204 32 196 39 196 64V412H388V64C388 40 380 32 348 28L316 24Z" glyph-name="fi" horiz-adv-x="572" unicode="&#64257;" /><glyph d="M44 84C44 12 140 -12 208 -12C351 -12 464 60 464 200C464 320 392 396 248 396C184 396 139 368 124 356C132 380 148 488 148 540H436L456 620H116C116 476 96 368 76 308H96C120 328 160 356 216 356C308 356 356 304 356 196C356 76 300 12 208 12C184 12 160 20 148 32L144 80C142 110 132 136 92 136C64 136 44 116 44 84Z" glyph-name="five" horiz-adv-x="528" unicode="5" /><glyph d="M32 84C32 12 128 -12 196 -12C339 -12 452 60 452 200C452 320 380 396 236 396C172 396 127 368 112 356C120 380 136 488 136 540H424L444 620H104C104 476 84 368 64 308H84C108 328 148 356 204 356C296 356 344 304 344 196C344 76 288 12 196 12C172 12 148 20 136 32L132 80C130 110 120 136 80 136C52 136 32 116 32 84Z" glyph-name="five.PPF" horiz-adv-x="496" /><glyph d="M44 -88C44 -160 140 -184 208 -184C351 -184 464 -104 464 36C464 156 392 232 248 232C184 232 139 204 124 192C132 216 148 324 148 376H436L456 456H116C116 312 96 204 76 144H96C120 164 160 192 216 192C308 192 356 140 356 32C356 -88 300 -160 208 -160C184 -160 160 -152 148 -140L144 -92C142 -62 132 -36 92 -36C64 -36 44 -56 44 -88Z" glyph-name="five.TOSF" horiz-adv-x="528" /><glyph d="M26 46C26 8 81 -6 120 -6C207 -6 273 33 273 104C273 165 227 203 146 203C115 203 88 192 74 183C79 200 85 235 86 257H253L268 312H66C66 240 52 182 40 149H56C70 160 92 171 120 171C167 171 198 148 198 98C198 46 171 16 120 16C107 16 95 20 89 25L87 46C85 64 78 78 54 78C38 78 26 65 26 46Z" glyph-name="five.denominator" horiz-adv-x="304" /><glyph d="M120 302C207 302 273 341 273 412C273 473 227 511 146 511C115 511 88 500 74 491C79 508 85 543 86 565H253L268 620H66C66 548 52 490 40 457H56C70 468 92 479 120 479C167 479 198 456 198 406C198 354 171 324 120 324C107 324 95 328 89 333L87 354C85 372 78 386 54 386C38 386 26 373 26 354C26 316 81 302 120 302Z" glyph-name="five.numerator" horiz-adv-x="304" /><glyph d="M64 -36C36 -36 20 -56 20 -84C20 -152 100 -184 180 -184C316 -184 412 -92 412 24C412 124 352 212 200 212C152 212 112 196 96 184C104 228 108 316 108 376H368L392 456H76C76 332 68 224 56 140H72C88 152 128 176 172 176C256 176 312 117 312 16C312 -92 260 -164 180 -164C152 -164 132 -156 120 -143L116 -96C110 -64 97 -36 64 -36Z" glyph-name="five.oldstyle" horiz-adv-x="444" /><glyph d="M28 0H268V24L236 28C204 32 196 39 196 64V412H296V452H196V500C196 616 252 684 316 684C384 684 388 616 388 580V64C388 40 380 32 348 28L316 24V0H556V24L524 28C492 32 484 40 484 64V708H480C470 701 448 695 427 690C402 701 370 708 332 708C200 708 100 636 100 476V468C88 456 64 440 36 436V412H100V64C100 39 92 32 60 28L28 24Z" glyph-name="fl" horiz-adv-x="572" unicode="&#64258;" /><glyph d="M72 288H191L152 -44C138 -158 100 -224 20 -224C32 -208 36 -192 36 -176C36 -144 12 -128 -16 -128C-44 -128 -68 -148 -68 -180C-68 -224 -28 -248 32 -248C136 -248 233 -194 252 -28L289 288H432V328H294L312 480C323 570 364 612 432 612C425 599 420 580 420 564C420 536 444 516 472 516C504 516 524 536 524 568C524 612 468 636 412 636C319 636 228 594 208 424L196 328H92Z" glyph-name="florin" horiz-adv-x="528" unicode="&#402;" /><glyph d="M60 288H179L140 -44C126 -158 88 -224 8 -224C20 -208 24 -192 24 -176C24 -144 0 -128 -28 -128C-56 -128 -80 -148 -80 -180C-80 -224 -40 -248 20 -248C124 -248 221 -194 240 -28L277 288H420V328H282L300 480C311 570 352 612 420 612C413 599 408 580 408 564C408 536 432 516 460 516C492 516 512 536 512 568C512 612 456 636 400 636C307 636 216 594 196 424L184 328H80Z" glyph-name="florin.PPF" horiz-adv-x="516" /><glyph d="M160 0H472V24L420 32C376 39 372 52 372 80V180H472V228H372V636H356C344 624 324 612 300 608L4 200V180H276V80C276 52 268 38 220 32L160 24ZM80 228 276 504V228Z" glyph-name="four" horiz-adv-x="528" unicode="4" /><glyph d="M160 0H472V24L420 32C376 39 372 52 372 80V180H472V228H372V636H356C344 624 324 612 300 608L4 200V180H276V80C276 52 268 38 220 32L160 24ZM80 228 276 504V228Z" glyph-name="four.PPF" horiz-adv-x="528" /><glyph d="M36 0H312V-176H408V0H496L508 68H408V480H392C379 471 330 459 308 456L36 56ZM312 404V68H88Z" glyph-name="four.TOSF" horiz-adv-x="528" /><glyph d="M88 0H278V22C276 22 252 26 250 26C225 28 222 33 222 45V86H276V120H222V320H211C203 314 181 308 164 306L3 105V86H150V45C150 33 143 28 117 26L88 22ZM51 120C76 149 126 216 150 245V120Z" glyph-name="four.denominator" horiz-adv-x="304" /><glyph d="M88 308H278V330C276 330 252 334 250 334C225 336 222 341 222 353V394H276V428H222V628H211C203 622 181 616 164 614L3 413V394H150V353C150 341 143 336 117 334L88 330ZM51 428C76 457 126 524 150 553V428Z" glyph-name="four.numerator" horiz-adv-x="304" /><glyph d="M12 0H272V-176H368V0H456L472 72H368V480H352C339 471 290 459 268 456L12 56ZM272 404V72H64Z" glyph-name="four.oldstyle" horiz-adv-x="476" /><glyph d="M-160 0 260 620H212L-208 0Z" glyph-name="fraction" horiz-adv-x="52" unicode="&#8260;" /><glyph d="M84 64C84 12 120 -4 156 -12V-13C88 -33 16 -68 16 -136C16 -216 96 -248 184 -248C340 -248 464 -152 464 -56C464 8 428 43 340 52L212 64C168 68 160 80 160 100C160 122 177 141 202 156H224C328 156 412 216 412 320V332C412 372 420 400 432 412C446 397 461 388 480 388C505 388 524 406 524 432C524 457 509 476 480 476C436 476 412 428 404 372C384 436 308 480 224 480C132 480 36 428 36 320C36 231 89 171 184 158C126 138 84 107 84 64ZM224 180C160 180 128 240 128 320C128 404 164 456 224 456C288 456 324 404 324 320C324 240 288 180 224 180ZM108 -112C108 -71 136 -36 169 -16L296 -28C354 -34 380 -52 380 -96C380 -164 332 -200 228 -200C160 -200 108 -180 108 -112Z" glyph-name="g" horiz-adv-x="508" unicode="g" /><glyph d="M84 64C84 12 120 -4 156 -12V-13C88 -33 16 -68 16 -136C16 -216 96 -248 184 -248C340 -248 464 -152 464 -56C464 8 428 43 340 52L212 64C168 68 160 80 160 100C160 122 177 141 202 156H224C328 156 412 216 412 320V332C412 372 420 400 432 412C446 397 461 388 480 388C505 388 524 406 524 432C524 457 509 476 480 476C436 476 412 428 404 372C384 436 308 480 224 480C132 480 36 428 36 320C36 231 89 171 184 158C126 138 84 107 84 64ZM224 180C160 180 128 240 128 320C128 404 164 456 224 456C288 456 324 404 324 320C324 240 288 180 224 180ZM108 -112C108 -71 136 -36 169 -16L296 -28C354 -34 380 -52 380 -96C380 -164 332 -200 228 -200C160 -200 108 -180 108 -112ZM224 536C296 536 328 584 328 640H316C316 608 284 576 224 576C164 576 132 608 132 640H120C120 584 152 536 224 536Z" glyph-name="gbreve" horiz-adv-x="508" unicode="&#287;" /><glyph d="M84 64C84 12 120 -4 156 -12V-13C88 -33 16 -68 16 -136C16 -216 96 -248 184 -248C340 -248 464 -152 464 -56C464 8 428 43 340 52L212 64C168 68 160 80 160 100C160 122 177 141 202 156H224C328 156 412 216 412 320V332C412 372 420 400 432 412C446 397 461 388 480 388C505 388 524 406 524 432C524 457 509 476 480 476C436 476 412 428 404 372C384 436 308 480 224 480C132 480 36 428 36 320C36 231 89 171 184 158C126 138 84 107 84 64ZM224 180C160 180 128 240 128 320C128 404 164 456 224 456C288 456 324 404 324 320C324 240 288 180 224 180ZM108 -112C108 -71 136 -36 169 -16L296 -28C354 -34 380 -52 380 -96C380 -164 332 -200 228 -200C160 -200 108 -180 108 -112ZM231 528C254 528 273 548 273 573C273 599 254 615 228 618C228 644 250 688 273 708H241C209 679 183 634 183 580C183 551 199 528 231 528Z" glyph-name="gcedilla" horiz-adv-x="508" /><glyph d="M84 64C84 12 120 -4 156 -12V-13C88 -33 16 -68 16 -136C16 -216 96 -248 184 -248C340 -248 464 -152 464 -56C464 8 428 43 340 52L212 64C168 68 160 80 160 100C160 122 177 141 202 156H224C328 156 412 216 412 320V332C412 372 420 400 432 412C446 397 461 388 480 388C505 388 524 406 524 432C524 457 509 476 480 476C436 476 412 428 404 372C384 436 308 480 224 480C132 480 36 428 36 320C36 231 89 171 184 158C126 138 84 107 84 64ZM224 180C160 180 128 240 128 320C128 404 164 456 224 456C288 456 324 404 324 320C324 240 288 180 224 180ZM108 -112C108 -71 136 -36 169 -16L296 -28C354 -34 380 -52 380 -96C380 -164 332 -200 228 -200C160 -200 108 -180 108 -112ZM106 536H122L222 600H226L322 536H338L230 668H218Z" glyph-name="gcircumflex" horiz-adv-x="508" unicode="&#285;" /><glyph d="M84 64C84 12 120 -4 156 -12V-13C88 -33 16 -68 16 -136C16 -216 96 -248 184 -248C340 -248 464 -152 464 -56C464 8 428 43 340 52L212 64C168 68 160 80 160 100C160 122 177 141 202 156H224C328 156 412 216 412 320V332C412 372 420 400 432 412C446 397 461 388 480 388C505 388 524 406 524 432C524 457 509 476 480 476C436 476 412 428 404 372C384 436 308 480 224 480C132 480 36 428 36 320C36 231 89 171 184 158C126 138 84 107 84 64ZM224 180C160 180 128 240 128 320C128 404 164 456 224 456C288 456 324 404 324 320C324 240 288 180 224 180ZM108 -112C108 -71 136 -36 169 -16L296 -28C354 -34 380 -52 380 -96C380 -164 332 -200 228 -200C160 -200 108 -180 108 -112ZM231 528C254 528 273 548 273 573C273 599 254 615 228 618C228 644 250 688 273 708H241C209 679 183 634 183 580C183 551 199 528 231 528Z" glyph-name="gcommaaccent" horiz-adv-x="508" unicode="&#291;" /><glyph d="M84 64C84 12 120 -4 156 -12V-13C88 -33 16 -68 16 -136C16 -216 96 -248 184 -248C340 -248 464 -152 464 -56C464 8 428 43 340 52L212 64C168 68 160 80 160 100C160 122 177 141 202 156H224C328 156 412 216 412 320V332C412 372 420 400 432 412C446 397 461 388 480 388C505 388 524 406 524 432C524 457 509 476 480 476C436 476 412 428 404 372C384 436 308 480 224 480C132 480 36 428 36 320C36 231 89 171 184 158C126 138 84 107 84 64ZM224 180C160 180 128 240 128 320C128 404 164 456 224 456C288 456 324 404 324 320C324 240 288 180 224 180ZM108 -112C108 -71 136 -36 169 -16L296 -28C354 -34 380 -52 380 -96C380 -164 332 -200 228 -200C160 -200 108 -180 108 -112ZM224 536C252 536 272 560 272 588C272 616 252 640 224 640C196 640 176 616 176 588C176 560 196 536 224 536Z" glyph-name="gdotaccent" horiz-adv-x="508" unicode="&#289;" /><glyph d="M28 0H268V24L228 28C204 30 196 40 196 64V496C196 608 252 680 328 680C391 680 444 631 444 568C444 532 436 506 412 484C375 451 316 424 316 352C316 284 360 257 404 228L452 196C486 173 504 151 504 104C504 52 484 20 432 20C370 20 334 88 328 160H308L312 44L304 -12L348 12C368 0 402 -12 432 -12C534 -12 600 46 600 132C600 196 556 240 520 264L452 308C417 331 400 348 400 388C400 424 420 457 444 472C495 504 520 526 520 576C520 658 439 708 336 708C204 708 100 624 100 476V468C88 456 64 440 36 436V412H100V64C100 39 92 32 60 28L28 24Z" glyph-name="germandbls" horiz-adv-x="616" unicode="&#223;" /><glyph d="M284 536H300L224 644C206 668 194 676 180 676C164 676 152 664 152 648C152 632 162 621 180 608Z" glyph-name="grave" horiz-adv-x="512" unicode="`" /><glyph d="M56 104 500 320 56 532 36 492 404 320 36 144Z" glyph-name="greater" horiz-adv-x="528" unicode="&gt;" /><glyph d="M56 104 500 320 56 532 36 492 404 320 36 144ZM36 -24V-68H492V-24Z" glyph-name="greaterequal" horiz-adv-x="528" unicode="&#8805;" /><glyph d="M164 224C204 196 284 128 316 92V116L244 228V236L316 348V372C284 336 204 268 164 240ZM172 92V116L100 228V236L172 348V372C140 336 60 268 20 240V224C60 196 140 128 172 92Z" glyph-name="guillemotleft" horiz-adv-x="344" unicode="&#171;" /><glyph d="M164 308C204 280 284 212 316 176V200L244 312V320L316 432V456C284 420 204 352 164 324ZM172 176V200L100 312V320L172 432V456C140 420 60 352 20 324V308C60 280 140 212 172 176Z" glyph-name="guillemotleft.cap" horiz-adv-x="344" /><glyph d="M172 92C204 128 284 196 324 224V240C284 268 204 336 172 372V348L244 236V228L172 116ZM28 92C60 128 140 196 180 224V240C140 268 60 336 28 372V348L100 236V228L28 116Z" glyph-name="guillemotright" horiz-adv-x="344" unicode="&#187;" /><glyph d="M172 176C204 212 284 280 324 308V324C284 352 204 420 172 456V432L244 320V312L172 200ZM28 176C60 212 140 280 180 308V324C140 352 60 420 28 456V432L100 320V312L28 200Z" glyph-name="guillemotright.cap" horiz-adv-x="344" /><glyph d="M172 92V116L100 228V236L172 348V372C140 336 60 268 20 240V224C60 196 140 128 172 92Z" glyph-name="guilsinglleft" horiz-adv-x="200" unicode="&#8249;" /><glyph d="M172 176V200L100 312V320L172 432V456C140 420 60 352 20 324V308C60 280 140 212 172 176Z" glyph-name="guilsinglleft.cap" horiz-adv-x="200" /><glyph d="M28 92C60 128 140 196 180 224V240C140 268 60 336 28 372V348L100 236V228L28 116Z" glyph-name="guilsinglright" horiz-adv-x="200" unicode="&#8250;" /><glyph d="M28 176C60 212 140 280 180 308V324C140 352 60 420 28 456V432L100 320V312L28 200Z" glyph-name="guilsinglright.cap" horiz-adv-x="200" /><glyph d="M312 0H552V24L520 28C488 32 480 40 480 64V328C480 425 424 476 336 476C256 476 212 424 192 376V708H188C172 696 130 690 108 688L32 680V660L60 652C85 645 96 636 96 612V64C96 40 88 32 56 28L24 24V0H264V24L232 28C200 32 192 40 192 64V364C212 392 252 416 292 416C356 416 384 380 384 300V64C384 40 376 32 344 28L312 24Z" glyph-name="h" horiz-adv-x="568" unicode="h" /><glyph d="M312 0H552V24L520 28C488 32 480 40 480 64V328C480 425 424 476 336 476C256 476 212 424 192 376V556H332V584H192V708H188C172 696 130 690 108 688L32 680V660L60 652C85 645 96 636 96 612V584H28V556H96V64C96 40 88 32 56 28L24 24V0H264V24L232 28C200 32 192 40 192 64V364C212 392 252 416 292 416C356 416 384 380 384 300V64C384 40 376 32 344 28L312 24Z" glyph-name="hbar" horiz-adv-x="568" unicode="&#295;" /><glyph d="M312 0H552V24L520 28C488 32 480 40 480 64V328C480 425 424 476 336 476C256 476 212 424 192 376V708H188C172 696 130 690 108 688L32 680V660L60 652C85 645 96 636 96 612V64C96 40 88 32 56 28L24 24V0H264V24L232 28C200 32 192 40 192 64V364C212 392 252 416 292 416C356 416 384 380 384 300V64C384 40 376 32 344 28L312 24ZM18 760H34L134 824H138L234 760H250L142 892H130Z" glyph-name="hcircumflex" horiz-adv-x="568" unicode="&#293;" /><glyph d="M300 536H316L428 600C448 612 460 624 460 640C460 656 448 664 432 664C416 664 401 651 384 632ZM156 536H172L284 600C304 612 316 624 316 640C316 656 304 664 288 664C272 664 257 651 240 632Z" glyph-name="hungarumlaut" horiz-adv-x="512" unicode="&#733;" /><glyph d="M32 236H232V288H32Z" glyph-name="hyphen" horiz-adv-x="264" unicode="-" /><glyph d="M32 288H232V340H32Z" glyph-name="hyphen.cap" horiz-adv-x="264" /><glyph d="M148 596C176 596 204 616 204 652C204 688 176 708 148 708C120 708 92 688 92 652C92 616 120 596 148 596ZM28 0H268V24L236 28C204 32 196 40 196 64V480H192C176 468 134 462 112 460L36 452V432L64 424C89 417 100 408 100 384V64C100 40 92 32 60 28L28 24Z" glyph-name="i" horiz-adv-x="284" unicode="i" /><glyph d="M28 0H268V24L236 28C204 32 196 40 196 64V480H192C176 468 134 462 112 460L36 452V432L64 424C89 417 100 408 100 384V64C100 40 92 32 60 28L28 24ZM98 536H114L218 608C236 621 246 632 246 648C246 664 234 676 218 676C204 676 191 669 174 644Z" glyph-name="iacute" horiz-adv-x="284" unicode="&#237;" /><glyph d="M28 0H268V24L236 28C204 32 196 40 196 64V480H192C176 468 134 462 112 460L36 452V432L64 424C89 417 100 408 100 384V64C100 40 92 32 60 28L28 24ZM142 536C214 536 246 584 246 640H234C234 608 202 576 142 576C82 576 50 608 50 640H38C38 584 70 536 142 536Z" glyph-name="ibreve" horiz-adv-x="284" unicode="&#301;" /><glyph d="M28 0H268V24L236 28C204 32 196 40 196 64V480H192C176 468 134 462 112 460L36 452V432L64 424C89 417 100 408 100 384V64C100 40 92 32 60 28L28 24ZM24 536H40L140 600H144L240 536H256L148 668H136Z" glyph-name="icircumflex" horiz-adv-x="284" unicode="&#238;" /><glyph d="M28 0H268V24L236 28C204 32 196 40 196 64V480H192C176 468 134 462 112 460L36 452V432L64 424C89 417 100 408 100 384V64C100 40 92 32 60 28L28 24ZM214 536C238 536 258 552 258 580C258 608 238 624 214 624C190 624 170 608 170 580C170 552 190 536 214 536ZM70 536C94 536 114 552 114 580C114 608 94 624 70 624C46 624 26 608 26 580C26 552 46 536 70 536Z" glyph-name="idieresis" horiz-adv-x="284" unicode="&#239;" /><glyph d="M28 0H268V24L236 28C204 32 196 40 196 64V480H192C176 468 134 462 112 460L36 452V432L64 424C89 417 100 408 100 384V64C100 40 92 32 60 28L28 24ZM170 536H186L110 644C92 668 80 676 66 676C50 676 38 664 38 648C38 632 48 621 66 608Z" glyph-name="igrave" horiz-adv-x="284" unicode="&#236;" /><glyph d="M424 596C452 596 480 616 480 652C480 688 452 708 424 708C396 708 368 688 368 652C368 616 396 596 424 596ZM148 596C176 596 204 616 204 652C204 688 176 708 148 708C120 708 92 688 92 652C92 616 120 596 148 596ZM264 -224V-248C408 -248 472 -164 472 8V480H468C452 468 410 462 388 460L308 452V432L340 424C365 417 376 408 376 384V-24C376 -160 336 -224 264 -224ZM28 0H268V24L236 28C204 32 196 40 196 64V480H192C176 468 134 462 112 460L36 452V432L64 424C89 417 100 408 100 384V64C100 40 92 32 60 28L28 24Z" glyph-name="ij" horiz-adv-x="556" unicode="&#307;" /><glyph d="M28 0H268V24L236 28C204 32 196 40 196 64V480H192C176 468 134 462 112 460L36 452V432L64 424C89 417 100 408 100 384V64C100 40 92 32 60 28L28 24ZM34 536H250V580H34Z" glyph-name="imacron" horiz-adv-x="284" unicode="&#299;" /><glyph d="M144 168C210 168 248 219 268 268L269 271C288 216 331 168 392 168C465 168 512 225 512 312C512 392 458 460 384 460C317 460 283 413 260 364L259 362C240 418 197 464 136 464C63 464 16 407 16 320C16 240 69 168 144 168ZM292 324C303 350 338 392 392 392C452 392 488 362 488 312C488 262 450 228 388 228C337 228 299 252 276 286ZM136 236C76 236 40 270 40 320C40 370 78 400 140 400C192 400 228 380 252 346L236 312C224 286 191 236 136 236Z" glyph-name="infinity" horiz-adv-x="528" unicode="&#8734;" /><glyph d="M48 -128C23 -128 -4 -146 -4 -180C-4 -231 48 -248 92 -248C192 -248 304 -189 304 20V512C304 635 356 676 416 676C392 609 438 588 464 588C489 588 516 606 516 640C516 691 464 708 420 708C320 708 208 649 208 440V-52C208 -175 156 -216 96 -216C120 -149 74 -128 48 -128Z" glyph-name="integral" horiz-adv-x="528" unicode="&#8747;" /><glyph d="M28 0H199C152 -22 68 -67 68 -116C68 -164 116 -184 168 -184C196 -184 216 -176 228 -168V-148C216 -156 196 -160 180 -160C144 -160 124 -144 124 -108C124 -62 182 -27 222 0H268V24L236 28C204 32 196 40 196 64V480H192C176 468 134 462 112 460L36 452V432L64 424C89 417 100 408 100 384V64C100 40 92 32 60 28L28 24ZM148 596C176 596 204 616 204 652C204 688 176 708 148 708C120 708 92 688 92 652C92 616 120 596 148 596Z" glyph-name="iogonek" horiz-adv-x="284" unicode="&#303;" /><glyph d="M28 0H268V24L236 28C204 32 196 40 196 64V480H192C176 468 134 462 112 460L36 452V432L64 424C89 417 100 408 100 384V64C100 40 92 32 60 28L28 24ZM28 540H44C44 568 56 592 84 592C120 592 144 536 184 536C236 536 256 588 256 640H240C240 612 228 588 200 588C164 588 140 644 100 644C48 644 28 592 28 540Z" glyph-name="itilde" horiz-adv-x="284" unicode="&#297;" /><glyph d="M140 596C168 596 196 616 196 652C196 688 168 708 140 708C112 708 84 688 84 652C84 616 112 596 140 596ZM92 -16C92 -152 52 -216 -20 -216V-240C124 -240 188 -156 188 16V480H184C168 468 126 462 104 460L24 452V432L56 424C81 417 92 408 92 384Z" glyph-name="j" horiz-adv-x="272" unicode="j" /><glyph d="M92 -24C92 -160 52 -224 -20 -224V-248C124 -248 188 -164 188 8V480H184C168 468 126 462 104 460L24 452V432L56 424C81 417 92 408 92 384ZM22 536H38L138 600H142L238 536H254L146 668H134Z" glyph-name="jcircumflex" horiz-adv-x="272" unicode="&#309;" /><glyph d="M296 88C321 47 348 12 368 0H492V24L464 28C432 44 403 86 376 128L288 272L404 392C421 410 435 417 460 424L488 432V456H300V432L336 424C356 419 359 410 344 392L260 288C244 268 220 254 192 249V708H188C172 696 130 690 108 688L32 680V660L60 652C85 645 96 636 96 612V64C96 40 88 32 56 28L24 24V0H264V24L232 28C200 32 192 40 192 64V236C201 232 210 224 216 216Z" glyph-name="k" horiz-adv-x="492" unicode="k" /><glyph d="M296 88C321 47 348 12 368 0H492V24L464 28C432 44 403 86 376 128L288 272L404 392C421 410 435 417 460 424L488 432V456H300V432L336 424C356 419 359 410 344 392L260 288C244 268 220 254 192 249V708H188C172 696 130 690 108 688L32 680V660L60 652C85 645 96 636 96 612V64C96 40 88 32 56 28L24 24V0H264V24L232 28C200 32 192 40 192 64V236C201 232 210 224 216 216ZM205 -95C205 -121 224 -137 250 -140C250 -166 228 -210 205 -230H237C269 -201 295 -156 295 -102C295 -73 279 -50 247 -50C224 -50 205 -70 205 -95Z" glyph-name="kcedilla" horiz-adv-x="492" /><glyph d="M296 88C321 47 348 12 368 0H492V24L464 28C432 44 403 86 376 128L288 272L404 392C421 410 435 417 460 424L488 432V456H300V432L336 424C356 419 359 410 344 392L260 288C244 268 220 254 192 249V708H188C172 696 130 690 108 688L32 680V660L60 652C85 645 96 636 96 612V64C96 40 88 32 56 28L24 24V0H264V24L232 28C200 32 192 40 192 64V236C201 232 210 224 216 216ZM205 -95C205 -121 224 -137 250 -140C250 -166 228 -210 205 -230H237C269 -201 295 -156 295 -102C295 -73 279 -50 247 -50C224 -50 205 -70 205 -95Z" glyph-name="kcommaaccent" horiz-adv-x="492" unicode="&#311;" /><glyph d="M24 0H264V24L232 28C200 32 192 40 192 64V708H188C172 696 130 690 108 688L32 680V660L60 652C85 645 96 636 96 612V64C96 40 88 32 56 28L24 24Z" glyph-name="l" horiz-adv-x="280" unicode="l" /><glyph d="M24 0H264V24L232 28C200 32 192 40 192 64V708H188C172 696 130 690 108 688L32 680V660L60 652C85 645 96 636 96 612V64C96 40 88 32 56 28L24 24ZM96 760H112L216 832C234 845 244 856 244 872C244 888 232 900 216 900C202 900 189 893 172 868Z" glyph-name="lacute" horiz-adv-x="280" unicode="&#314;" /><glyph d="M239 528H271C303 557 329 602 329 656C329 685 313 708 281 708C258 708 239 688 239 663C239 637 258 621 284 618C284 592 262 548 239 528ZM24 0H264V24L232 28C200 32 192 40 192 64V708H188C172 696 130 690 108 688L32 680V660L60 652C85 645 96 636 96 612V64C96 40 88 32 56 28L24 24Z" glyph-name="lcaron" horiz-adv-x="280" unicode="&#318;" /><glyph d="M24 0H264V24L232 28C200 32 192 40 192 64V708H188C172 696 130 690 108 688L32 680V660L60 652C85 645 96 636 96 612V64C96 40 88 32 56 28L24 24ZM99 -95C99 -121 118 -137 144 -140C144 -166 122 -210 99 -230H131C163 -201 189 -156 189 -102C189 -73 173 -50 141 -50C118 -50 99 -70 99 -95Z" glyph-name="lcedilla" horiz-adv-x="280" /><glyph d="M24 0H264V24L232 28C200 32 192 40 192 64V708H188C172 696 130 690 108 688L32 680V660L60 652C85 645 96 636 96 612V64C96 40 88 32 56 28L24 24ZM99 -95C99 -121 118 -137 144 -140C144 -166 122 -210 99 -230H131C163 -201 189 -156 189 -102C189 -73 173 -50 141 -50C118 -50 99 -70 99 -95Z" glyph-name="lcommaaccent" horiz-adv-x="280" unicode="&#316;" /><glyph d="M24 0H264V24L232 28C200 32 192 40 192 64V708H188C172 696 130 690 108 688L32 680V660L60 652C85 645 96 636 96 612V64C96 40 88 32 56 28L24 24ZM280 320C308 320 328 344 328 372C328 400 308 424 280 424C252 424 232 400 232 372C232 344 252 320 280 320Z" glyph-name="ldot" horiz-adv-x="280" unicode="&#320;" /><glyph d="M28 320 472 104 492 144 124 320 492 492 472 532Z" glyph-name="less" horiz-adv-x="528" unicode="&lt;" /><glyph d="M28 320 472 104 492 144 124 320 492 492 472 532ZM36 -24V-68H492V-24Z" glyph-name="lessequal" horiz-adv-x="528" unicode="&#8804;" /><glyph d="M40 292H444V108H492V336H40Z" glyph-name="logicalnot" horiz-adv-x="528" unicode="&#172;" /><glyph d="M24 0H280V24L240 28C200 32 192 40 192 64V500C192 600 216 668 268 684C276 636 300 600 336 600C364 600 384 616 384 648C384 684 344 708 292 708C172 708 96 620 96 476V468C84 456 60 440 32 436V412H96V64C96 39 88 32 56 28L24 24Z" glyph-name="longs" horiz-adv-x="292" unicode="&#383;" /><glyph d="M264 -12 504 320 268 640 28 308ZM253 561 446 299 279 66 85 328Z" glyph-name="lozenge" horiz-adv-x="528" unicode="&#9674;" /><glyph d="M24 284 96 330V64C96 40 88 32 56 28L24 24V0H264V24L232 28C200 32 192 40 192 64V391L268 440V480L192 431V708H188C172 696 130 690 108 688L32 680V660L60 652C85 645 96 636 96 612V370L24 324Z" glyph-name="lslash" horiz-adv-x="280" unicode="&#322;" /><glyph d="M312 0H552V24L520 28C488 32 480 40 480 64V332C480 343 479 353 478 362C498 389 537 412 576 412C640 412 668 376 668 296V64C668 40 660 32 628 28L596 24V0H836V24L804 28C772 32 764 40 764 64V324C764 421 708 472 620 472C544 472 497 422 475 376C460 443 409 476 336 476C256 476 216 424 196 376V480H192C176 468 134 462 112 460L36 452V432L64 424C89 417 100 408 100 384V64C100 40 92 32 60 28L28 24V0H268V24L236 28C204 32 196 40 196 64V364C216 392 252 416 292 416C356 416 384 380 384 300V64C384 40 376 32 344 28L312 24Z" glyph-name="m" horiz-adv-x="852" unicode="m" /><glyph d="M148 536H364V580H148Z" glyph-name="macron" horiz-adv-x="512" unicode="&#175;" /><glyph d="M36 296H492V340H36Z" glyph-name="minus" horiz-adv-x="528" unicode="&#8722;" /><glyph d="M72 -184C72 -214 83 -248 124 -248C163 -248 180 -214 180 -184C180 -123 171 -28 168 15C192 -3 220 -12 252 -12C324 -12 360 28 376 84V72C376 20 412 -12 456 -12C500 -12 528 4 552 36V48C540 40 524 36 508 36C488 36 472 48 472 80V456H376V96C356 68 316 48 276 48C212 48 184 80 184 152V456H88V48C88 -29 72 -113 72 -184Z" glyph-name="mu" horiz-adv-x="560" unicode="&#181;" /><glyph d="M85 101 263 279 442 101 476 135 297 313 476 492 442 526 263 347 85 526 51 492 229 313 51 135Z" glyph-name="multiply" horiz-adv-x="528" unicode="&#215;" /><glyph d="M316 0H556V24L524 28C492 32 484 40 484 64V328C484 425 428 476 340 476C260 476 216 424 196 376V480H192C176 468 134 462 112 460L36 452V432L64 424C89 417 100 408 100 384V64C100 40 92 32 60 28L28 24V0H268V24L236 28C204 32 196 40 196 64V364C216 392 256 416 296 416C360 416 388 380 388 300V64C388 40 380 32 348 28L316 24Z" glyph-name="n" horiz-adv-x="572" unicode="n" /><glyph d="M316 0H556V24L524 28C492 32 484 40 484 64V328C484 425 428 476 340 476C260 476 216 424 196 376V480H192C176 468 134 462 112 460L36 452V432L64 424C89 417 100 408 100 384V64C100 40 92 32 60 28L28 24V0H268V24L236 28C204 32 196 40 196 64V364C216 392 256 416 296 416C360 416 388 380 388 300V64C388 40 380 32 348 28L316 24ZM244 536H260L364 608C382 621 392 632 392 648C392 664 380 676 364 676C350 676 337 669 320 644Z" glyph-name="nacute" horiz-adv-x="572" unicode="&#324;" /><glyph d="M316 0H556V24L524 28C492 32 484 40 484 64V328C484 425 428 476 340 476C260 476 216 424 196 376V480H192C176 468 134 462 112 460L36 452V432L64 424C89 417 100 408 100 384V64C100 40 92 32 60 28L28 24V0H268V24L236 28C204 32 196 40 196 64V364C216 392 256 416 296 416C360 416 388 380 388 300V64C388 40 380 32 348 28L316 24ZM103 528H135C167 557 193 602 193 656C193 685 177 708 145 708C122 708 103 688 103 663C103 637 122 621 148 618C148 592 126 548 103 528Z" glyph-name="napostrophe" horiz-adv-x="572" unicode="&#329;" /><glyph d="M316 0H556V24L524 28C492 32 484 40 484 64V328C484 425 428 476 340 476C260 476 216 424 196 376V480H192C176 468 134 462 112 460L36 452V432L64 424C89 417 100 408 100 384V64C100 40 92 32 60 28L28 24V0H268V24L236 28C204 32 196 40 196 64V364C216 392 256 416 296 416C360 416 388 380 388 300V64C388 40 380 32 348 28L316 24ZM282 536H294L402 668H386L290 604H286L186 668H170Z" glyph-name="ncaron" horiz-adv-x="572" unicode="&#328;" /><glyph d="M316 0H556V24L524 28C492 32 484 40 484 64V328C484 425 428 476 340 476C260 476 216 424 196 376V480H192C176 468 134 462 112 460L36 452V432L64 424C89 417 100 408 100 384V64C100 40 92 32 60 28L28 24V0H268V24L236 28C204 32 196 40 196 64V364C216 392 256 416 296 416C360 416 388 380 388 300V64C388 40 380 32 348 28L316 24ZM247 -95C247 -121 266 -137 292 -140C292 -166 270 -210 247 -230H279C311 -201 337 -156 337 -102C337 -73 321 -50 289 -50C266 -50 247 -70 247 -95Z" glyph-name="ncedilla" horiz-adv-x="572" /><glyph d="M316 0H556V24L524 28C492 32 484 40 484 64V328C484 425 428 476 340 476C260 476 216 424 196 376V480H192C176 468 134 462 112 460L36 452V432L64 424C89 417 100 408 100 384V64C100 40 92 32 60 28L28 24V0H268V24L236 28C204 32 196 40 196 64V364C216 392 256 416 296 416C360 416 388 380 388 300V64C388 40 380 32 348 28L316 24ZM247 -95C247 -121 266 -137 292 -140C292 -166 270 -210 247 -230H279C311 -201 337 -156 337 -102C337 -73 321 -50 289 -50C266 -50 247 -70 247 -95Z" glyph-name="ncommaaccent" horiz-adv-x="572" unicode="&#326;" /><glyph d="M72 20C92 4 132 -12 188 -12C368 -12 488 147 488 352C488 548 388 636 256 636C132 636 40 552 40 436C40 296 124 232 228 232C295 232 350 263 382 313C372 149 307 20 176 20C128 20 96 32 72 48ZM276 280C180 280 140 348 140 444C140 548 184 612 256 612C348 612 384 520 384 364C384 353 384 342 383 331C363 303 315 280 276 280Z" glyph-name="nine" horiz-adv-x="528" unicode="9" /><glyph d="M64 20C84 4 124 -12 180 -12C360 -12 480 147 480 352C480 548 380 636 248 636C124 636 32 552 32 436C32 296 116 232 220 232C287 232 342 263 374 313C364 149 299 20 168 20C120 20 88 32 64 48ZM268 280C172 280 132 348 132 444C132 548 176 612 248 612C340 612 376 520 376 364C376 353 376 342 375 331C355 303 307 280 268 280Z" glyph-name="nine.PPF" horiz-adv-x="512" /><glyph d="M72 -124V-152C92 -168 132 -184 188 -184C368 -184 488 -21 488 196C488 392 388 480 256 480C132 480 40 396 40 280C40 140 124 76 228 76C295 76 350 107 382 157C372 -10 307 -152 176 -152C128 -152 96 -140 72 -124ZM276 124C180 124 140 192 140 288C140 392 184 456 256 456C348 456 384 364 384 208C384 197 384 186 383 175C363 147 315 124 276 124Z" glyph-name="nine.TOSF" horiz-adv-x="528" /><glyph d="M41 11C55 2 82 -6 109 -6C214 -6 285 65 285 180C285 276 225 320 148 320C71 320 22 276 22 219C22 146 70 115 126 115C162 115 191 130 209 151C202 77 167 21 99 21C75 21 57 25 41 34ZM161 150C114 150 93 178 93 224C93 273 114 299 148 299C193 299 211 259 211 185C211 183 211 171 210 168C199 157 179 150 161 150Z" glyph-name="nine.denominator" horiz-adv-x="304" /><glyph d="M109 302C214 302 285 373 285 488C285 584 225 628 148 628C71 628 22 584 22 527C22 454 70 423 126 423C162 423 191 438 209 459C202 385 167 329 99 329C75 329 57 333 41 342V319C55 310 82 302 109 302ZM161 458C114 458 93 486 93 532C93 581 114 607 148 607C193 607 211 567 211 493C211 491 211 479 210 476C199 465 179 458 161 458Z" glyph-name="nine.numerator" horiz-adv-x="304" /><glyph d="M60 -140V-164C96 -177 128 -184 160 -184C333 -184 452 -36 452 192C452 400 364 480 236 480C104 480 28 388 28 280C28 160 96 80 200 80C257 80 307 105 347 153C339 -25 284 -156 152 -156C125 -156 94 -151 60 -140ZM252 128C164 128 128 200 128 288C128 392 168 456 236 456C324 456 348 352 348 196C348 187 347 179 347 171C323 145 285 128 252 128Z" glyph-name="nine.oldstyle" horiz-adv-x="484" /><glyph d="M36 388H299L194 236H36V192H163L64 48L84 32L194 192H492V236H225L330 388H492V432H360L452 564L432 580L329 432H36Z" glyph-name="notequal" horiz-adv-x="528" unicode="&#8800;" /><glyph d="M316 0H556V24L524 28C492 32 484 40 484 64V328C484 425 428 476 340 476C260 476 216 424 196 376V480H192C176 468 134 462 112 460L36 452V432L64 424C89 417 100 408 100 384V64C100 40 92 32 60 28L28 24V0H268V24L236 28C204 32 196 40 196 64V364C216 392 256 416 296 416C360 416 388 380 388 300V64C388 40 380 32 348 28L316 24ZM174 540H190C190 568 202 592 230 592C266 592 290 536 330 536C382 536 402 588 402 640H386C386 612 374 588 346 588C310 588 286 644 246 644C194 644 174 592 174 540Z" glyph-name="ntilde" horiz-adv-x="572" unicode="&#241;" /><glyph d="M60 452H158L97 168H8L0 124H88L52 -44L100 -52L137 124H300L264 -44L312 -52L349 124H460L468 168H359L419 452H520L528 496H429L464 660L416 668L379 496H217L252 660L204 668L167 496H68ZM207 452H370L309 168H147Z" glyph-name="numbersign" horiz-adv-x="528" unicode="#" /><glyph d="M34 236C34 72 138 -12 266 -12C394 -12 498 72 498 236C498 388 394 480 266 480C138 480 34 388 34 236ZM266 16C186 16 138 100 138 236C138 372 186 452 266 452C346 452 394 372 394 236C394 100 346 16 266 16Z" glyph-name="o" horiz-adv-x="532" unicode="o" /><glyph d="M34 236C34 72 138 -12 266 -12C394 -12 498 72 498 236C498 388 394 480 266 480C138 480 34 388 34 236ZM266 16C186 16 138 100 138 236C138 372 186 452 266 452C346 452 394 372 394 236C394 100 346 16 266 16ZM222 536H238L342 608C360 621 370 632 370 648C370 664 358 676 342 676C328 676 315 669 298 644Z" glyph-name="oacute" horiz-adv-x="532" unicode="&#243;" /><glyph d="M34 236C34 72 138 -12 266 -12C394 -12 498 72 498 236C498 388 394 480 266 480C138 480 34 388 34 236ZM266 16C186 16 138 100 138 236C138 372 186 452 266 452C346 452 394 372 394 236C394 100 346 16 266 16ZM266 536C338 536 370 584 370 640H358C358 608 326 576 266 576C206 576 174 608 174 640H162C162 584 194 536 266 536Z" glyph-name="obreve" horiz-adv-x="532" unicode="&#335;" /><glyph d="M34 236C34 72 138 -12 266 -12C394 -12 498 72 498 236C498 388 394 480 266 480C138 480 34 388 34 236ZM266 16C186 16 138 100 138 236C138 372 186 452 266 452C346 452 394 372 394 236C394 100 346 16 266 16ZM148 536H164L264 600H268L364 536H380L272 668H260Z" glyph-name="ocircumflex" horiz-adv-x="532" unicode="&#244;" /><glyph d="M34 236C34 72 138 -12 266 -12C394 -12 498 72 498 236C498 388 394 480 266 480C138 480 34 388 34 236ZM266 16C186 16 138 100 138 236C138 372 186 452 266 452C346 452 394 372 394 236C394 100 346 16 266 16ZM338 536C362 536 382 552 382 580C382 608 362 624 338 624C314 624 294 608 294 580C294 552 314 536 338 536ZM194 536C218 536 238 552 238 580C238 608 218 624 194 624C170 624 150 608 150 580C150 552 170 536 194 536Z" glyph-name="odieresis" horiz-adv-x="532" unicode="&#246;" /><glyph d="M24 236C24 72 128 -12 256 -12C325 -12 388 16 429 72C463 19 516 -12 588 -12C680 -12 736 44 752 108C728 76 684 52 632 52C536 52 480 116 480 256V292L754 288C759 304 760 321 760 332C760 424 692 480 592 480C527 480 470 447 432 391C393 448 331 480 256 480C128 480 24 388 24 236ZM256 16C176 16 128 100 128 236C128 372 176 452 256 452C336 452 384 372 384 236C384 100 336 16 256 16ZM484 312C498 393 536 448 592 448C648 448 676 400 676 324Z" glyph-name="oe" horiz-adv-x="780" unicode="&#339;" /><glyph d="M184 -116C184 -164 232 -184 284 -184C312 -184 332 -176 344 -168V-148C332 -156 312 -160 296 -160C260 -160 240 -144 240 -108C240 -60 304 -24 344 4H324C280 -16 184 -64 184 -116Z" glyph-name="ogonek" horiz-adv-x="512" unicode="&#731;" /><glyph d="M34 236C34 72 138 -12 266 -12C394 -12 498 72 498 236C498 388 394 480 266 480C138 480 34 388 34 236ZM266 16C186 16 138 100 138 236C138 372 186 452 266 452C346 452 394 372 394 236C394 100 346 16 266 16ZM294 536H310L234 644C216 668 204 676 190 676C174 676 162 664 162 648C162 632 172 621 190 608Z" glyph-name="ograve" horiz-adv-x="532" unicode="&#242;" /><glyph d="M34 236C34 72 138 -12 266 -12C394 -12 498 72 498 236C498 388 394 480 266 480C138 480 34 388 34 236ZM266 16C186 16 138 100 138 236C138 372 186 452 266 452C346 452 394 372 394 236C394 100 346 16 266 16ZM310 536H326L438 600C458 612 470 624 470 640C470 656 458 664 442 664C426 664 411 651 394 632ZM166 536H182L294 600C314 612 326 624 326 640C326 656 314 664 298 664C282 664 267 651 250 632Z" glyph-name="ohungarumlaut" horiz-adv-x="532" unicode="&#337;" /><glyph d="M34 236C34 72 138 -12 266 -12C394 -12 498 72 498 236C498 388 394 480 266 480C138 480 34 388 34 236ZM266 16C186 16 138 100 138 236C138 372 186 452 266 452C346 452 394 372 394 236C394 100 346 16 266 16ZM158 536H374V580H158Z" glyph-name="omacron" horiz-adv-x="532" unicode="&#333;" /><glyph d="M84 0H460V24L380 36C332 43 324 52 324 80V636H308L76 504L84 484L224 532V80C224 52 216 43 168 36L84 24Z" glyph-name="one" horiz-adv-x="528" unicode="1" /><glyph d="M20 0H376V24L296 36C256 42 248 52 248 80V636H232L16 488L24 468L148 520V80C148 52 140 42 100 36L20 24Z" glyph-name="one.PPF" horiz-adv-x="393" /><glyph d="M84 0H460V24L380 36C332 43 324 52 324 80V480H308L76 348L84 328L224 376V80C224 52 216 43 168 36L84 24Z" glyph-name="one.TOSF" horiz-adv-x="528" /><glyph d="M52 0H273V22C270 22 235 27 233 27C207 30 201 33 201 45V320H185L40 250L49 233L126 256V45C126 33 117 30 92 27L52 22Z" glyph-name="one.denominator" horiz-adv-x="304" /><glyph d="M52 308H273V330C270 330 235 335 233 335C207 338 201 341 201 353V628H185L40 558L49 541L126 564V353C126 341 117 338 92 335L52 330Z" glyph-name="one.numerator" horiz-adv-x="304" /><glyph d="M20 0H332V24L280 32C232 39 224 52 224 80V480H208L12 356L20 336L128 372V80C128 52 120 39 72 32L20 24Z" glyph-name="one.oldstyle" horiz-adv-x="344" /><glyph d="M52 308H273V330C270 330 235 335 233 335C207 338 201 341 201 353V628H185L40 558L49 541L126 564V353C126 341 117 338 92 335L52 330ZM156 0 576 620H528L108 0ZM375 0H605L641 110H628L595 66C588 56 579 53 564 53H444C465 69 499 89 520 105C563 134 614 172 614 233C614 289 571 320 499 320C410 320 376 257 388 205H400C396 251 432 278 473 278C513 278 539 261 539 223C539 175 507 141 472 108L375 16Z" glyph-name="onehalf" horiz-adv-x="660" unicode="&#189;" /><glyph d="M52 308H273V330C270 330 235 335 233 335C207 338 201 341 201 353V628H185L40 558L49 541L126 564V353C126 341 117 338 92 335L52 330ZM176 0 596 620H548L128 0ZM444 0H634V22C632 22 608 26 606 26C581 28 578 33 578 45V86H632V120H578V320H567C559 314 537 308 520 306L359 105V86H506V45C506 33 499 28 473 26L444 22ZM407 120C432 149 482 216 506 245V120Z" glyph-name="onequarter" horiz-adv-x="660" unicode="&#188;" /><glyph d="M47 308H268V330C265 330 230 335 228 335C202 338 196 341 196 353V628H180L35 558L44 541L121 564V353C121 341 112 338 87 335L47 330Z" glyph-name="onesuperior" horiz-adv-x="304" unicode="&#185;" /><glyph d="M100 304C145 304 168 331 181 352V351C185 325 204 304 234 304C264 304 284 316 300 336V347C293 343 284 340 275 340C262 340 251 348 251 368V529C251 596 221 625 154 625C118 625 84 608 60 588C43 573 29 559 29 540C29 517 42 505 59 505C79 505 92 521 92 541C92 554 87 568 82 579C95 586 106 590 122 590C157 590 178 566 178 517V474L128 462C61 446 22 422 22 373C22 328 53 304 100 304ZM134 346C107 346 90 362 90 388C90 421 117 434 152 447L178 456V359C169 352 155 346 134 346Z" glyph-name="ordfeminine" horiz-adv-x="298" unicode="&#170;" /><glyph d="M170 304C257 304 324 358 324 466C324 566 257 625 170 625C83 625 16 566 16 466C16 358 83 304 170 304ZM170 325C122 325 95 379 95 466C95 552 122 604 170 604C218 604 245 552 245 466C245 379 218 325 170 325Z" glyph-name="ordmasculine" horiz-adv-x="334" unicode="&#186;" /><glyph d="M20 236C20 140 55 71 110 31L44 -76H80L136 15C170 -3 210 -12 252 -12C380 -12 484 72 484 236C484 323 450 391 396 432L456 528H420L371 449C336 469 295 480 252 480C124 480 20 388 20 236ZM124 236C124 372 172 452 252 452C289 452 319 434 341 402L149 93C132 129 124 178 124 236ZM252 16C216 16 187 32 166 62L358 371C372 336 380 290 380 236C380 100 332 16 252 16Z" glyph-name="oslash" horiz-adv-x="504" unicode="&#248;" /><glyph d="M20 236C20 140 55 71 110 31L44 -76H80L136 15C170 -3 210 -12 252 -12C380 -12 484 72 484 236C484 323 450 391 396 432L456 528H420L371 449C336 469 295 480 252 480C124 480 20 388 20 236ZM124 236C124 372 172 452 252 452C289 452 319 434 341 402L149 93C132 129 124 178 124 236ZM252 16C216 16 187 32 166 62L358 371C372 336 380 290 380 236C380 100 332 16 252 16ZM208 536H224L328 608C346 621 356 632 356 648C356 664 344 676 328 676C314 676 301 669 284 644Z" glyph-name="oslashacute" horiz-adv-x="504" unicode="&#511;" /><glyph d="M34 236C34 72 138 -12 266 -12C394 -12 498 72 498 236C498 388 394 480 266 480C138 480 34 388 34 236ZM266 16C186 16 138 100 138 236C138 372 186 452 266 452C346 452 394 372 394 236C394 100 346 16 266 16ZM152 540H168C168 568 180 592 208 592C244 592 268 536 308 536C360 536 380 588 380 640H364C364 612 352 588 324 588C288 588 264 644 224 644C172 644 152 592 152 540Z" glyph-name="otilde" horiz-adv-x="532" unicode="&#245;" /><glyph d="M92 -176C92 -200 84 -208 52 -212L20 -216V-240H276V-216L236 -212C196 -208 188 -200 188 -176V48C208 12 252 -12 304 -12C428 -12 520 96 520 252C520 396 452 480 332 480C252 480 208 428 188 392V480H184C168 468 126 462 104 460L28 452V432L56 424C81 417 92 408 92 384ZM280 420C364 420 420 364 420 244C420 124 372 32 272 32C236 32 210 43 188 64V380C208 404 244 420 280 420Z" glyph-name="p" horiz-adv-x="556" unicode="p" /><glyph d="M268 0H312V596H404V0H444V596H520V620H280C170 620 36 576 36 420C36 267 164 216 256 216H268Z" glyph-name="paragraph" horiz-adv-x="528" unicode="&#182;" /><glyph d="M56 232C56 -56 172 -200 292 -248V-228C219 -182 140 -44 140 232C140 508 219 642 292 688V708C172 660 56 520 56 232Z" glyph-name="parenleft" horiz-adv-x="304" unicode="(" /><glyph d="M292 -68C231 -30 164 77 164 308C164 539 231 646 292 684V708C192 668 80 549 80 308C80 67 192 -52 292 -92Z" glyph-name="parenleft.cap" horiz-adv-x="304" /><glyph d="M12 -228V-248C132 -200 248 -56 248 232C248 520 132 660 12 708V688C85 642 164 508 164 232C164 -44 85 -182 12 -228Z" glyph-name="parenright" horiz-adv-x="304" unicode=")" /><glyph d="M12 -68V-92C112 -52 224 67 224 308C224 549 112 668 12 708V684C73 646 140 539 140 308C140 77 73 -30 12 -68Z" glyph-name="parenright.cap" horiz-adv-x="304" /><glyph d="M44 192C44 89 112 -12 252 -12C397 -12 476 118 476 260C476 556 312 632 92 636V596C243 584 357 543 374 348H372C346 387 311 412 244 412C108 412 44 299 44 192ZM252 20C180 20 144 96 144 176C144 264 186 360 272 360C315 360 345 339 376 308V296C376 189 370 20 252 20Z" glyph-name="partialdiff" horiz-adv-x="528" unicode="&#8706;" /><glyph d="M152 302C233 302 290 364 290 464C290 566 233 627 152 627C71 627 16 566 16 464C16 364 73 302 152 302ZM152 324C106 324 92 387 92 464C92 545 106 605 152 605C198 605 214 545 214 464C214 387 198 324 152 324ZM144 0 564 620H516L96 0ZM508 -6C589 -6 646 56 646 156C646 258 589 319 508 319C427 319 372 258 372 156C372 56 429 -6 508 -6ZM508 16C462 16 448 79 448 156C448 237 462 297 508 297C554 297 570 237 570 156C570 79 554 16 508 16Z" glyph-name="percent" horiz-adv-x="660" unicode="%" /><glyph d="M36 44C36 12 60 -12 92 -12C124 -12 148 12 148 44C148 76 124 100 92 100C60 100 36 76 36 44Z" glyph-name="period" horiz-adv-x="184" unicode="." /><glyph d="M92 200C124 200 148 224 148 256C148 288 124 312 92 312C60 312 36 288 36 256C36 224 60 200 92 200Z" glyph-name="periodcentered" horiz-adv-x="184" unicode="&#183;" /><glyph d="M92 260C124 260 148 284 148 316C148 348 124 372 92 372C60 372 36 348 36 316C36 284 60 260 92 260Z" glyph-name="periodcentered.cap" horiz-adv-x="184" /><glyph d="M152 302C233 302 290 364 290 464C290 566 233 627 152 627C71 627 16 566 16 464C16 364 73 302 152 302ZM152 324C106 324 92 387 92 464C92 545 106 605 152 605C198 605 214 545 214 464C214 387 198 324 152 324ZM144 0 564 620H516L96 0ZM508 -6C589 -6 646 56 646 156C646 258 589 319 508 319C427 319 372 258 372 156C372 56 429 -6 508 -6ZM508 16C462 16 448 79 448 156C448 237 462 297 508 297C554 297 570 237 570 156C570 79 554 16 508 16ZM812 -6C893 -6 950 56 950 156C950 258 893 319 812 319C731 319 676 258 676 156C676 56 733 -6 812 -6ZM812 16C766 16 752 79 752 156C752 237 766 297 812 297C858 297 874 237 874 156C874 79 858 16 812 16Z" glyph-name="perthousand" horiz-adv-x="964" unicode="&#8240;" /><glyph d="M56 40C56 12 76 -12 108 -12C169 -12 180 65 180 212V380H300V96C300 20 344 -8 400 -8C476 -8 500 44 508 76L496 84C476 60 460 36 432 36C404 36 396 60 396 92V380H412C464 380 484 392 484 444C484 456 483 476 480 496H468L460 476C454 461 448 451 432 452L116 460C64 460 39 431 20 372L28 364L36 368C57 379 75 380 104 380H143C139 218 133 156 128 132C76 97 56 71 56 40Z" glyph-name="pi" horiz-adv-x="532" unicode="&#960;" /><glyph d="M36 296H240V60H288V296H492V340H288V568H240V340H36Z" glyph-name="plus" horiz-adv-x="528" unicode="+" /><glyph d="M36 296H240V60H288V296H492V340H288V568H240V340H36ZM36 -24V-68H492V-24Z" glyph-name="plusminus" horiz-adv-x="528" unicode="&#177;" /><glyph d="M20 0H264V24L236 28C200 33 192 44 192 72V580H464V72C464 44 456 33 420 28L392 24V0H636V24L608 28C572 33 564 44 564 72V548C564 576 572 587 608 592L636 596V620H20V596L48 592C84 587 92 576 92 548V72C92 44 84 33 48 28L20 24Z" glyph-name="product" horiz-adv-x="656" unicode="&#8719;" /><glyph d="M228 -12C312 -12 352 40 368 68V-176C368 -202 356 -208 316 -212L276 -216V-240H528V-216L496 -212C468 -209 464 -202 464 -176V388C464 412 471 418 496 424L528 432V452L444 460C422 462 396 464 372 480H368V416C352 452 312 480 248 480C132 480 36 384 36 236C36 80 112 -12 228 -12ZM284 48C204 48 136 100 136 248C136 364 188 436 280 436C318 436 348 424 368 400V80C348 60 320 48 284 48Z" glyph-name="q" horiz-adv-x="552" unicode="q" /><glyph d="M136 176H160C160 320 332 352 332 496C332 588 272 636 176 636C96 636 24 588 24 528C24 496 44 476 72 476C104 476 124 496 124 528C124 556 108 580 96 592C104 596 120 600 136 600C208 600 236 552 236 472C236 332 136 312 136 176ZM92 44C92 12 116 -12 148 -12C180 -12 204 12 204 44C204 76 180 100 148 100C116 100 92 76 92 44Z" glyph-name="question" horiz-adv-x="364" unicode="?" /><glyph d="M216 368C248 368 272 392 272 424C272 456 248 480 216 480C184 480 160 456 160 424C160 392 184 368 216 368ZM32 -28C32 -120 92 -168 188 -168C268 -168 340 -120 340 -60C340 -28 320 -8 292 -8C260 -8 240 -28 240 -60C240 -88 256 -112 268 -124C260 -128 244 -132 228 -132C156 -132 128 -84 128 -4C128 136 228 156 228 292H204C204 148 32 116 32 -28Z" glyph-name="questiondown" horiz-adv-x="364" unicode="&#191;" /><glyph d="M216 524C248 524 272 548 272 580C272 612 248 636 216 636C184 636 160 612 160 580C160 548 184 524 216 524ZM32 128C32 36 92 -12 188 -12C268 -12 340 36 340 96C340 128 320 148 292 148C260 148 240 128 240 96C240 68 256 44 268 32C260 28 244 24 228 24C156 24 128 72 128 152C128 292 228 312 228 448H204C204 304 32 272 32 128Z" glyph-name="questiondown.cap" horiz-adv-x="364" /><glyph d="M232 448H256C256 480 280 576 304 620C292 628 268 636 244 636C220 636 196 628 184 620C208 576 232 480 232 448ZM72 448H96C96 480 120 576 144 620C132 628 108 636 84 636C60 636 36 628 24 620C48 576 72 480 72 448Z" glyph-name="quotedbl" horiz-adv-x="328" unicode="&quot;" /><glyph d="M188 48C188 16 208 -4 240 -12C240 -36 220 -76 188 -108H228C264 -76 292 -24 292 36C292 72 272 96 236 96C208 96 188 76 188 48ZM40 48C40 16 60 -4 92 -12C92 -36 72 -76 40 -108H80C116 -76 144 -24 144 36C144 72 124 96 88 96C60 96 40 76 40 48Z" glyph-name="quotedblbase" horiz-adv-x="332" unicode="&#8222;" /><glyph d="M244 416C272 416 292 436 292 464C292 496 272 516 240 524C240 548 260 588 292 620H252C216 588 188 536 188 476C188 440 208 416 244 416ZM96 416C124 416 144 436 144 464C144 496 124 516 92 524C92 548 112 588 144 620H104C68 588 40 536 40 476C40 440 60 416 96 416Z" glyph-name="quotedblleft" horiz-adv-x="332" unicode="&#8220;" /><glyph d="M188 428H228C264 460 292 512 292 572C292 608 272 632 236 632C208 632 188 612 188 584C188 552 208 532 240 524C240 500 220 460 188 428ZM40 428H80C116 460 144 512 144 572C144 608 124 632 88 632C60 632 40 612 40 584C40 552 60 532 92 524C92 500 72 460 40 428Z" glyph-name="quotedblright" horiz-adv-x="332" unicode="&#8221;" /><glyph d="M96 416C124 416 144 436 144 464C144 496 124 516 92 524C92 548 112 588 144 620H104C68 588 40 536 40 476C40 440 60 416 96 416Z" glyph-name="quoteleft" horiz-adv-x="184" unicode="&#8216;" /><glyph d="M40 432H80C116 464 144 516 144 576C144 612 124 636 88 636C60 636 40 616 40 588C40 556 60 536 92 528C92 504 72 464 40 432Z" glyph-name="quoteright" horiz-adv-x="184" unicode="&#8217;" /><glyph d="M40 48C40 16 60 -4 92 -12C92 -36 72 -76 40 -108H80C116 -76 144 -24 144 36C144 72 124 96 88 96C60 96 40 76 40 48Z" glyph-name="quotesinglbase" horiz-adv-x="184" unicode="&#8218;" /><glyph d="M72 448H96C96 480 120 576 144 620C132 628 108 636 84 636C60 636 36 628 24 620C48 576 72 480 72 448Z" glyph-name="quotesingle" horiz-adv-x="168" unicode="'" /><glyph d="M28 0H284V24L244 28C204 32 196 40 196 64V328C216 364 248 404 268 412C272 384 296 364 320 364C356 364 376 388 376 428C376 460 352 480 320 480C264 480 220 408 196 348V480H192C176 468 134 462 112 460L36 452V432L64 424C89 417 100 408 100 384V64C100 39 92 32 60 28L28 24Z" glyph-name="r" horiz-adv-x="360" unicode="r" /><glyph d="M28 0H284V24L244 28C204 32 196 40 196 64V328C216 364 248 404 268 412C272 384 296 364 320 364C356 364 376 388 376 428C376 460 352 480 320 480C264 480 220 408 196 348V480H192C176 468 134 462 112 460L36 452V432L64 424C89 417 100 408 100 384V64C100 39 92 32 60 28L28 24ZM164 536H180L284 608C302 621 312 632 312 648C312 664 300 676 284 676C270 676 257 669 240 644Z" glyph-name="racute" horiz-adv-x="360" unicode="&#341;" /><glyph d="M280 -12H300L564 748H524L308 104L200 464L32 392L48 364L148 404Z" glyph-name="radical" horiz-adv-x="528" unicode="&#8730;" /><glyph d="M28 0H284V24L244 28C204 32 196 40 196 64V328C216 364 248 404 268 412C272 384 296 364 320 364C356 364 376 388 376 428C376 460 352 480 320 480C264 480 220 408 196 348V480H192C176 468 134 462 112 460L36 452V432L64 424C89 417 100 408 100 384V64C100 39 92 32 60 28L28 24ZM202 536H214L322 668H306L210 604H206L106 668H90Z" glyph-name="rcaron" horiz-adv-x="360" unicode="&#345;" /><glyph d="M28 0H284V24L244 28C204 32 196 40 196 64V328C216 364 248 404 268 412C272 384 296 364 320 364C356 364 376 388 376 428C376 460 352 480 320 480C264 480 220 408 196 348V480H192C176 468 134 462 112 460L36 452V432L64 424C89 417 100 408 100 384V64C100 39 92 32 60 28L28 24ZM111 -95C111 -121 130 -137 156 -140C156 -166 134 -210 111 -230H143C175 -201 201 -156 201 -102C201 -73 185 -50 153 -50C130 -50 111 -70 111 -95Z" glyph-name="rcedilla" horiz-adv-x="360" /><glyph d="M28 0H284V24L244 28C204 32 196 40 196 64V328C216 364 248 404 268 412C272 384 296 364 320 364C356 364 376 388 376 428C376 460 352 480 320 480C264 480 220 408 196 348V480H192C176 468 134 462 112 460L36 452V432L64 424C89 417 100 408 100 384V64C100 39 92 32 60 28L28 24ZM111 -95C111 -121 130 -137 156 -140C156 -166 134 -210 111 -230H143C175 -201 201 -156 201 -102C201 -73 185 -50 153 -50C130 -50 111 -70 111 -95Z" glyph-name="rcommaaccent" horiz-adv-x="360" unicode="&#343;" /><glyph d="M28 312C28 124 175 -12 356 -12C537 -12 684 124 684 312C684 500 537 636 356 636C175 636 28 500 28 312ZM80 312C80 468 195 596 356 596C517 596 632 468 632 312C632 156 517 28 356 28C195 28 80 156 80 312ZM172 144H352V160L316 168C303 171 300 172 300 180V288H336L396 204C416 175 434 152 448 144H552V160L516 168C502 176 490 194 476 212L440 256C419 281 407 292 396 299C452 313 496 354 496 396C496 456 438 488 352 488H172V472L208 464C223 461 224 460 224 452V180C224 172 223 171 208 168L172 160ZM348 464C407 464 420 427 420 388C420 338 398 308 332 308H300V460C316 464 332 464 348 464Z" glyph-name="registered" horiz-adv-x="712" unicode="&#174;" /><glyph d="M256 536C300 536 340 564 340 608C340 652 300 680 256 680C212 680 172 652 172 608C172 564 212 536 256 536ZM256 552C228 552 212 576 212 608C212 640 228 664 256 664C284 664 300 640 300 608C300 576 284 552 256 552Z" glyph-name="ring" horiz-adv-x="512" unicode="&#730;" /><glyph d="M44 -12 88 12C112 0 152 -12 192 -12C284 -12 364 32 364 132C364 208 314 236 272 260L188 304C159 319 140 340 140 380C140 420 172 448 212 448C264 448 310 415 320 332H340L344 480L304 456C284 468 252 480 212 480C128 480 52 432 52 352C52 280 100 247 144 224L220 184C247 168 272 144 272 104C272 56 244 20 188 20C114 20 74 88 68 160H48L52 44Z" glyph-name="s" horiz-adv-x="400" unicode="s" /><glyph d="M44 -12 88 12C112 0 152 -12 192 -12C284 -12 364 32 364 132C364 208 314 236 272 260L188 304C159 319 140 340 140 380C140 420 172 448 212 448C264 448 310 415 320 332H340L344 480L304 456C284 468 252 480 212 480C128 480 52 432 52 352C52 280 100 247 144 224L220 184C247 168 272 144 272 104C272 56 244 20 188 20C114 20 74 88 68 160H48L52 44ZM160 536H176L280 608C298 621 308 632 308 648C308 664 296 676 280 676C266 676 253 669 236 644Z" glyph-name="sacute" horiz-adv-x="400" unicode="&#347;" /><glyph d="M44 -12 88 12C112 0 152 -12 192 -12C284 -12 364 32 364 132C364 208 314 236 272 260L188 304C159 319 140 340 140 380C140 420 172 448 212 448C264 448 310 415 320 332H340L344 480L304 456C284 468 252 480 212 480C128 480 52 432 52 352C52 280 100 247 144 224L220 184C247 168 272 144 272 104C272 56 244 20 188 20C114 20 74 88 68 160H48L52 44ZM198 536H210L318 668H302L206 604H202L102 668H86Z" glyph-name="scaron" horiz-adv-x="400" unicode="&#353;" /><glyph d="M144 -68C200 -76 232 -88 232 -120C232 -148 212 -164 172 -164C148 -164 124 -156 108 -148V-168C124 -176 148 -184 180 -184C240 -184 288 -164 288 -112C288 -64 236 -44 184 -37L202 -12C290 -9 364 35 364 132C364 208 314 236 272 260L188 304C159 319 140 340 140 380C140 420 172 448 212 448C264 448 310 415 320 332H340L344 480L304 456C284 468 252 480 212 480C128 480 52 432 52 352C52 280 100 247 144 224L220 184C247 168 272 144 272 104C272 56 244 20 188 20C114 20 74 88 68 160H48L52 44L44 -12L88 12C110 1 146 -10 182 -12Z" glyph-name="scedilla" horiz-adv-x="400" unicode="&#351;" /><glyph d="M44 -12 88 12C112 0 152 -12 192 -12C284 -12 364 32 364 132C364 208 314 236 272 260L188 304C159 319 140 340 140 380C140 420 172 448 212 448C264 448 310 415 320 332H340L344 480L304 456C284 468 252 480 212 480C128 480 52 432 52 352C52 280 100 247 144 224L220 184C247 168 272 144 272 104C272 56 244 20 188 20C114 20 74 88 68 160H48L52 44ZM86 536H102L202 600H206L302 536H318L210 668H198Z" glyph-name="scircumflex" horiz-adv-x="400" unicode="&#349;" /><glyph d="M44 -12 88 12C112 0 152 -12 192 -12C284 -12 364 32 364 132C364 208 314 236 272 260L188 304C159 319 140 340 140 380C140 420 172 448 212 448C264 448 310 415 320 332H340L344 480L304 456C284 468 252 480 212 480C128 480 52 432 52 352C52 280 100 247 144 224L220 184C247 168 272 144 272 104C272 56 244 20 188 20C114 20 74 88 68 160H48L52 44ZM159 -95C159 -121 178 -137 204 -140C204 -166 182 -210 159 -230H191C223 -201 249 -156 249 -102C249 -73 233 -50 201 -50C178 -50 159 -70 159 -95Z" glyph-name="scommaaccent" horiz-adv-x="400" unicode="&#537;" /><glyph d="M84 -84C57 -84 32 -101 32 -136C32 -195 106 -240 200 -240C278 -240 388 -193 388 -88C388 -28 352 17 309 47C369 73 424 124 424 196C424 280 365 318 312 352L244 396C186 434 160 457 160 504C160 570 208 608 260 608C293 608 315 599 336 584C325 564 320 547 320 532C320 496 352 480 376 480C403 480 428 497 428 532C428 591 354 636 260 636C182 636 72 589 72 484C72 424 108 379 150 349C91 322 36 272 36 200C36 116 95 78 148 44L216 0C274 -38 300 -61 300 -108C300 -174 252 -212 200 -212C167 -212 145 -203 124 -188C135 -168 140 -151 140 -136C140 -100 108 -84 84 -84ZM296 248C322 230 336 204 336 172C336 126 326 93 290 60L164 148C138 166 124 192 124 224C124 270 134 302 170 335Z" glyph-name="section" horiz-adv-x="460" unicode="&#167;" /><glyph d="M92 296C124 296 148 320 148 352C148 384 124 408 92 408C60 408 36 384 36 352C36 320 60 296 92 296ZM36 44C36 12 60 -8 92 -12C92 -44 64 -100 36 -124H76C116 -88 148 -32 148 36C148 72 128 100 88 100C60 100 36 76 36 44Z" glyph-name="semicolon" horiz-adv-x="184" unicode=";" /><glyph d="M120 0H196L484 604V620H76L52 540H416Z" glyph-name="seven" horiz-adv-x="528" unicode="7" /><glyph d="M108 0H184L464 604V620H56L32 540H396Z" glyph-name="seven.PPF" horiz-adv-x="488" /><glyph d="M120 -176H196L484 440V456H76L52 376H416Z" glyph-name="seven.TOSF" horiz-adv-x="528" /><glyph d="M66 0H120L283 299V312H47L27 256H234Z" glyph-name="seven.denominator" horiz-adv-x="304" /><glyph d="M66 308H120L283 607V620H47L27 564H234Z" glyph-name="seven.numerator" horiz-adv-x="304" /><glyph d="M76 -176H152L416 440V456H36L12 376H352Z" glyph-name="seven.oldstyle" horiz-adv-x="432" /><glyph d="M272 -12C404 -12 488 80 488 196C488 328 404 392 300 392C243 392 189 366 149 319C160 483 232 604 364 604C412 604 444 592 468 576V604C448 620 408 636 352 636C172 636 40 489 40 284C40 76 144 -12 272 -12ZM248 344C336 344 384 284 384 188C384 76 344 12 272 12C180 12 148 116 148 272V301C173 326 214 344 248 344Z" glyph-name="six" horiz-adv-x="528" unicode="6" /><glyph d="M264 -12C396 -12 480 80 480 196C480 328 396 392 292 392C235 392 181 366 141 319C152 483 224 604 356 604C404 604 436 592 460 576V604C440 620 400 636 344 636C164 636 32 489 32 284C32 76 136 -12 264 -12ZM240 344C328 344 376 284 376 188C376 76 336 12 264 12C172 12 140 116 140 272V301C165 326 206 344 240 344Z" glyph-name="six.PPF" horiz-adv-x="512" /><glyph d="M272 -12C404 -12 488 80 488 196C488 328 404 392 300 392C243 392 189 366 149 319C160 483 232 604 364 604C412 604 444 592 468 576V604C448 620 408 636 352 636C172 636 40 489 40 284C40 76 144 -12 272 -12ZM248 344C336 344 384 284 384 188C384 76 344 12 272 12C180 12 148 116 148 272V301C173 326 214 344 248 344Z" glyph-name="six.TOSF" horiz-adv-x="528" /><glyph d="M22 143C22 41 83 -6 157 -6C239 -6 285 46 285 103C285 171 237 202 181 202C148 202 119 189 99 166C106 239 142 295 212 295C237 295 255 290 270 282V305C255 313 231 320 202 320C101 320 22 254 22 143ZM157 16C111 16 98 61 98 137V150C110 160 128 166 146 166C190 166 213 139 213 97C213 44 193 16 157 16Z" glyph-name="six.denominator" horiz-adv-x="304" /><glyph d="M157 302C239 302 285 354 285 411C285 479 237 510 181 510C148 510 119 497 99 474C106 547 142 603 212 603C237 603 255 598 270 590V613C255 621 231 628 202 628C101 628 22 562 22 451C22 349 83 302 157 302ZM157 324C111 324 98 369 98 445V458C110 468 128 474 146 474C190 474 213 447 213 405C213 352 193 324 157 324Z" glyph-name="six.numerator" horiz-adv-x="304" /><glyph d="M248 -12C380 -12 456 84 456 192C456 312 388 380 284 380C226 380 176 354 137 306C144 467 198 608 324 608C372 608 400 596 424 580V604C404 620 368 636 312 636C132 636 32 460 32 280C32 72 120 -12 248 -12ZM232 332C320 332 356 272 356 184C356 80 316 12 248 12C160 12 136 112 136 268V289C161 314 198 332 232 332Z" glyph-name="six.oldstyle" horiz-adv-x="484" /><glyph d="M16 -76H56L300 688H260Z" glyph-name="slash" horiz-adv-x="316" unicode="/" /><glyph d="M264 -12C404 -12 500 120 500 312C500 504 408 636 264 636C120 636 28 504 28 312C28 120 124 -12 264 -12ZM264 12C230 12 204 29 185 59L363 525C383 471 392 395 392 312C392 152 360 12 264 12ZM136 312C136 476 168 612 264 612C296 612 321 596 340 570L162 106C143 160 136 234 136 312Z" glyph-name="slashedzero" horiz-adv-x="528" /><glyph d="M284 -12C424 -12 540 112 540 312C540 512 428 636 284 636C140 636 28 512 28 312C28 112 144 -12 284 -12ZM136 312C136 484 188 612 284 612C316 612 343 598 365 572L180 87C151 142 136 222 136 312ZM284 12C254 12 229 24 208 46L392 529C418 476 432 399 432 312C432 144 380 12 284 12Z" glyph-name="slashedzero.PPF" horiz-adv-x="568" /><glyph d="M28 236C28 92 124 -12 264 -12C404 -12 500 92 500 236C500 380 404 480 264 480C124 480 28 380 28 236ZM396 236C396 95 340 16 264 16C242 16 223 22 205 34L351 406C379 370 396 313 396 236ZM132 236C132 377 188 452 264 452C285 452 305 446 322 434L176 62C148 99 132 158 132 236Z" glyph-name="slashedzero.TOSF" horiz-adv-x="528" /><glyph d="M28 236C28 92 128 -12 268 -12C408 -12 508 92 508 236C508 380 408 480 268 480C128 480 28 380 28 236ZM268 16C246 16 225 23 206 36L353 411C384 375 404 316 404 236C404 95 344 16 268 16ZM132 236C132 377 192 452 268 452C288 452 306 446 323 436L177 64C149 102 132 160 132 236Z" glyph-name="slashedzero.oldstyle" horiz-adv-x="536" /><glyph glyph-name="space" horiz-adv-x="200" unicode=" " /><glyph d="M76 304H172L164 172C160 102 103 56 56 56L12 12V-4C22 1 38 4 60 4C212 4 224 -20 332 -20C456 -20 500 44 500 152H480C480 84 440 48 364 48C295 48 272 64 136 64C209 82 261 142 268 260L270 304H436V344H273L280 452C287 568 322 612 384 612C404 612 416 608 428 600C416 588 412 566 412 552C412 524 433 504 464 504C500 504 516 528 516 560C516 601 468 636 384 636C256 636 189 571 180 428L175 344H92Z" glyph-name="sterling" horiz-adv-x="528" unicode="&#163;" /><glyph d="M48 304H144L136 172C132 102 99 56 52 56L8 12V-4C18 1 40 4 56 4C180 4 196 -20 304 -20C428 -20 472 44 472 152H452C452 84 412 48 336 48C267 48 236 64 116 64C189 82 233 142 240 260L243 304H408V344H245L252 452C259 568 294 612 356 612C376 612 388 608 400 600C388 588 384 566 384 552C384 524 405 504 436 504C472 504 488 528 488 560C488 601 440 636 356 636C228 636 161 571 152 428L146 344H64Z" glyph-name="sterling.PPF" horiz-adv-x="500" /><glyph d="M20 0H452L484 212H460C444 168 408 104 384 76C353 63 292 60 232 60H116L340 316L144 584H256C303 584 368 580 392 572C416 540 440 480 448 444H472L464 628C446 623 408 620 376 620H20V600L252 288L20 20Z" glyph-name="summation" horiz-adv-x="508" unicode="&#8721;" /><glyph d="M88 104C88 32 128 -12 200 -12C264 -12 304 20 324 76C308 60 284 44 252 44C204 44 180 64 180 132V416H312V456H180V572H164L92 488L32 440V416H88Z" glyph-name="t" horiz-adv-x="328" unicode="t" /><glyph d="M88 104C88 32 128 -12 200 -12C264 -12 304 20 324 76C308 60 284 44 252 44C204 44 180 64 180 132V412H376V40L344 0H560V24L520 28C480 32 472 40 472 64V412H588V452H472V500C472 600 500 668 552 684C560 636 588 600 624 600C652 600 672 616 672 648C672 684 628 708 576 708C456 708 376 620 376 476V452H180V572H164L92 484L32 436V412H88Z" glyph-name="t_f" horiz-adv-x="588" /><glyph d="M88 104C88 32 128 -12 200 -12C264 -12 304 20 324 76C308 60 284 44 252 44C204 44 180 64 180 132V412H376V104C376 32 416 -12 488 -12C552 -12 592 20 612 76C596 60 572 44 540 44C492 44 468 64 468 132V412H600V452H468V572H452L353 452H180V572H164L92 484L32 436V412H88Z" glyph-name="t_t" horiz-adv-x="608" /><glyph d="M32 232H88V104C88 32 128 -12 200 -12C264 -12 304 20 324 76C308 60 284 44 252 44C204 44 180 64 180 132V232H308V268H180V412H312V452H180V572H164L92 484L32 436V412H88V268H32Z" glyph-name="tbar" horiz-adv-x="320" unicode="&#359;" /><glyph d="M239 528H271C303 557 329 602 329 656C329 685 313 708 281 708C258 708 239 688 239 663C239 637 258 621 284 618C284 592 262 548 239 528ZM88 104C88 32 128 -12 200 -12C264 -12 304 20 324 76C308 60 284 44 252 44C204 44 180 64 180 132V412H312V452H180V572H164L92 484L32 436V412H88Z" glyph-name="tcaron" horiz-adv-x="320" unicode="&#357;" /><glyph d="M88 104C88 32 128 -12 200 -12C264 -12 304 20 324 76C308 60 284 44 252 44C204 44 180 64 180 132V416H312V456H180V572H164L92 488L32 440V416H88ZM135 -95C135 -121 154 -137 180 -140C180 -166 158 -210 135 -230H167C199 -201 225 -156 225 -102C225 -73 209 -50 177 -50C154 -50 135 -70 135 -95Z" glyph-name="tcommaaccent" horiz-adv-x="328" unicode="&#355;" /><glyph d="M92 -176C92 -200 84 -208 52 -212L20 -216V-240H276V-216L236 -212C196 -208 188 -200 188 -176V48C208 12 252 -12 304 -12C428 -12 520 96 520 252C520 396 452 480 332 480C252 480 208 428 188 392V708H184C168 696 126 690 104 688L28 680V660L56 652C81 645 92 636 92 612ZM280 420C364 420 420 364 420 244C420 124 372 32 272 32C236 32 210 43 188 64V380C208 404 244 420 280 420Z" glyph-name="thorn" horiz-adv-x="544" unicode="&#254;" /><glyph d="M44 84C44 16 140 -12 208 -12C360 -12 460 56 460 180C460 284 372 336 284 344C360 364 432 416 432 496C432 588 360 636 260 636C156 636 72 580 80 464H100C96 536 152 576 216 576C296 576 336 544 336 472C336 392 272 356 232 344C202 335 172 332 152 332V300C169 306 191 308 204 308C288 308 352 272 352 180C352 60 288 12 208 12C184 12 160 20 148 32L144 80C141 110 132 136 92 136C64 136 44 116 44 84Z" glyph-name="three" horiz-adv-x="528" unicode="3" /><glyph d="M32 84C32 16 128 -12 196 -12C348 -12 448 56 448 180C448 284 360 336 272 344C348 364 420 416 420 496C420 588 348 636 248 636C144 636 60 580 68 464H88C84 536 140 576 204 576C284 576 324 544 324 472C324 392 260 356 220 344C190 335 160 332 140 332V300C157 306 179 308 192 308C276 308 340 272 340 180C340 60 276 12 196 12C172 12 148 20 136 32L132 80C129 110 120 136 80 136C52 136 32 116 32 84Z" glyph-name="three.PPF" horiz-adv-x="492" /><glyph d="M44 -80C44 -148 140 -184 208 -184C360 -184 460 -108 460 16C460 120 372 176 284 184C360 204 432 260 432 340C432 432 360 480 260 480C156 480 72 424 80 308H100C96 380 152 420 216 420C296 420 336 388 336 316C336 236 272 196 232 184C202 175 172 172 152 172V140C169 146 191 148 204 148C288 148 352 108 352 16C352 -104 288 -160 208 -160C184 -160 160 -152 148 -140L144 -92C141 -62 132 -36 92 -36C64 -36 44 -48 44 -80Z" glyph-name="three.TOSF" horiz-adv-x="528" /><glyph d="M26 46C26 9 81 -6 120 -6C208 -6 272 29 272 94C272 140 234 166 187 175C223 187 254 211 254 248C254 296 211 320 153 320C89 320 39 289 45 227H59C57 262 90 279 121 279C164 279 187 264 187 234C187 202 157 184 132 177C116 172 99 171 88 171V145C97 148 110 149 119 149C163 149 197 132 197 91C197 40 166 16 120 16C108 16 95 20 89 25L87 47C84 65 78 78 55 78C38 78 26 65 26 46Z" glyph-name="three.denominator" horiz-adv-x="304" /><glyph d="M120 302C208 302 272 337 272 402C272 448 234 474 187 483C223 495 254 519 254 556C254 604 211 628 153 628C89 628 39 597 45 535H59C57 570 90 587 121 587C164 587 187 572 187 542C187 510 157 492 132 485C116 480 99 479 88 479V453C97 456 110 457 119 457C163 457 197 440 197 399C197 348 166 324 120 324C108 324 95 328 89 333L87 355C84 373 78 386 55 386C38 386 26 373 26 354C26 317 81 302 120 302Z" glyph-name="three.numerator" horiz-adv-x="304" /><glyph d="M40 -36C12 -36 -4 -56 -4 -84C-4 -152 76 -184 156 -184C296 -184 400 -108 400 16C400 124 320 164 248 180C316 204 376 256 376 340C376 424 300 480 196 480C99 480 20 412 36 312H52C52 396 112 432 172 432C228 432 280 404 280 328C280 252 235 206 200 188C167 170 137 167 112 164V132C124 140 148 144 164 144C248 144 300 100 300 12C300 -88 244 -164 160 -164C132 -164 112 -156 100 -143L92 -96C86 -64 73 -36 40 -36Z" glyph-name="three.oldstyle" horiz-adv-x="444" /><glyph d="M120 302C208 302 272 337 272 402C272 448 234 474 187 483C223 495 254 519 254 556C254 604 211 628 153 628C89 628 39 597 45 535H59C57 570 90 587 121 587C164 587 187 572 187 542C187 510 157 492 132 485C116 480 99 479 88 479V453C97 456 110 457 119 457C163 457 197 440 197 399C197 348 166 324 120 324C108 324 95 328 89 333L87 355C84 373 78 386 55 386C38 386 26 373 26 354C26 317 81 302 120 302ZM152 0 572 620H524L104 0ZM444 0H634V22C632 22 608 26 606 26C581 28 578 33 578 45V86H632V120H578V320H567C559 314 537 308 520 306L359 105V86H506V45C506 33 499 28 473 26L444 22ZM407 120C432 149 482 216 506 245V120Z" glyph-name="threequarters" horiz-adv-x="660" unicode="&#190;" /><glyph d="M118 302C206 302 270 337 270 402C270 448 232 474 185 483C221 495 252 519 252 556C252 604 209 628 151 628C87 628 37 597 43 535H57C55 570 88 587 119 587C162 587 185 572 185 542C185 510 155 492 130 485C114 480 97 479 86 479V453C95 456 108 457 117 457C161 457 195 440 195 399C195 348 164 324 118 324C106 324 93 328 87 333L85 355C82 373 76 386 53 386C36 386 24 373 24 354C24 317 79 302 118 302Z" glyph-name="threesuperior" horiz-adv-x="304" unicode="&#179;" /><glyph d="M142 540H158C158 568 170 592 198 592C234 592 258 536 298 536C350 536 370 588 370 640H354C354 612 342 588 314 588C278 588 254 644 214 644C162 644 142 592 142 540Z" glyph-name="tilde" horiz-adv-x="512" unicode="&#732;" /><glyph d="M298 308H402V325L383 328C364 331 360 339 360 351V540L459 316H465L575 542V348C575 335 573 329 553 327L540 325V308H684V325L672 327C652 329 649 335 649 348V581C649 594 652 598 672 601L684 603V620H586L490 417L402 620H298V605L309 602C330 596 334 589 334 568V351C334 338 330 331 313 328L298 325ZM66 308H225V326L211 328C187 331 182 334 182 348V599H192C201 599 226 599 243 591C254 578 263 558 270 531H283L279 626C272 622 258 620 240 620H52C34 620 20 622 12 627L8 531H22C29 558 37 578 49 591C65 599 89 599 98 599H108V348C108 334 103 331 80 328L66 326Z" glyph-name="trademark" horiz-adv-x="671" unicode="&#8482;" /><glyph d="M32 0H432L488 208H472L412 112C398 89 380 80 352 80H124L288 220C360 282 440 355 440 468C440 572 372 636 248 636C96 636 40 516 60 416H80C72 512 132 576 212 576C284 576 332 540 332 448C332 336 264 272 204 204L32 12Z" glyph-name="two" horiz-adv-x="528" unicode="2" /><glyph d="M32 0H432L488 208H472L412 112C398 89 380 80 352 80H124L288 220C360 282 440 355 440 468C440 572 372 636 248 636C96 636 40 516 60 416H80C72 512 132 576 212 576C284 576 332 540 332 448C332 336 264 272 204 204L32 12Z" glyph-name="two.PPF" horiz-adv-x="524" /><glyph d="M56 0H432L484 172H468L416 96C405 80 392 72 368 72H152L228 120C306 169 420 232 420 340C420 428 352 480 244 480C116 480 64 396 64 320C64 308 65 295 68 284H88V304C88 380 152 420 208 420C276 420 312 384 312 324C312 248 241 188 176 128L56 16Z" glyph-name="two.TOSF" horiz-adv-x="528" /><glyph d="M19 0H249L285 110H272L239 66C232 56 223 53 208 53H88C109 69 143 89 164 105C207 134 258 172 258 233C258 289 215 320 143 320C54 320 20 257 32 205H44C40 251 76 278 117 278C157 278 183 261 183 223C183 175 151 141 116 108L19 16Z" glyph-name="two.denominator" horiz-adv-x="304" /><glyph d="M19 308H249L285 418H272L239 374C232 364 223 361 208 361H88C109 377 143 397 164 413C207 442 258 480 258 541C258 597 215 628 143 628C54 628 20 565 32 513H44C40 559 76 586 117 586C157 586 183 569 183 531C183 483 151 449 116 416L19 324Z" glyph-name="two.numerator" horiz-adv-x="304" /><glyph d="M24 0H384L400 72H120L188 120C264 173 372 244 372 340C372 428 312 480 212 480C92 480 44 402 44 328C44 316 45 307 48 296H64V312C64 390 128 428 176 428C236 428 272 392 272 332C272 248 209 188 144 128L24 16Z" glyph-name="two.oldstyle" horiz-adv-x="440" /><glyph d="M19 308H249L285 418H272L239 374C232 364 223 361 208 361H88C109 377 143 397 164 413C207 442 258 480 258 541C258 597 215 628 143 628C54 628 20 565 32 513H44C40 559 76 586 117 586C157 586 183 569 183 531C183 483 151 449 116 416L19 324Z" glyph-name="twosuperior" horiz-adv-x="304" unicode="&#178;" /><glyph d="M92 136C92 36 148 -12 236 -12C316 -12 360 36 380 84V-12H384C400 0 442 6 464 8L540 16V36L512 44C487 51 476 60 476 84V480H472C456 468 416 462 392 460L312 452V432L344 424C372 417 380 408 380 384V96C360 68 320 48 280 48C216 48 188 84 188 164V480H184C168 468 126 462 104 460L28 452V432L56 424C81 417 92 408 92 384Z" glyph-name="u" horiz-adv-x="564" unicode="u" /><glyph d="M92 136C92 36 148 -12 236 -12C316 -12 360 36 380 84V-12H384C400 0 442 6 464 8L540 16V36L512 44C487 51 476 60 476 84V480H472C456 468 416 462 392 460L312 452V432L344 424C372 417 380 408 380 384V96C360 68 320 48 280 48C216 48 188 84 188 164V480H184C168 468 126 462 104 460L28 452V432L56 424C81 417 92 408 92 384ZM240 536H256L360 608C378 621 388 632 388 648C388 664 376 676 360 676C346 676 333 669 316 644Z" glyph-name="uacute" horiz-adv-x="564" unicode="&#250;" /><glyph d="M92 136C92 36 148 -12 236 -12C316 -12 360 36 380 84V-12H384C400 0 442 6 464 8L540 16V36L512 44C487 51 476 60 476 84V480H472C456 468 416 462 392 460L312 452V432L344 424C372 417 380 408 380 384V96C360 68 320 48 280 48C216 48 188 84 188 164V480H184C168 468 126 462 104 460L28 452V432L56 424C81 417 92 408 92 384ZM284 536C356 536 388 584 388 640H376C376 608 344 576 284 576C224 576 192 608 192 640H180C180 584 212 536 284 536Z" glyph-name="ubreve" horiz-adv-x="564" unicode="&#365;" /><glyph d="M92 136C92 36 148 -12 236 -12C316 -12 360 36 380 84V-12H384C400 0 442 6 464 8L540 16V36L512 44C487 51 476 60 476 84V480H472C456 468 416 462 392 460L312 452V432L344 424C372 417 380 408 380 384V96C360 68 320 48 280 48C216 48 188 84 188 164V480H184C168 468 126 462 104 460L28 452V432L56 424C81 417 92 408 92 384ZM166 536H182L282 600H286L382 536H398L290 668H278Z" glyph-name="ucircumflex" horiz-adv-x="564" unicode="&#251;" /><glyph d="M92 136C92 36 148 -12 236 -12C316 -12 360 36 380 84V-12H384C400 0 442 6 464 8L540 16V36L512 44C487 51 476 60 476 84V480H472C456 468 416 462 392 460L312 452V432L344 424C372 417 380 408 380 384V96C360 68 320 48 280 48C216 48 188 84 188 164V480H184C168 468 126 462 104 460L28 452V432L56 424C81 417 92 408 92 384ZM212 536C236 536 256 552 256 580C256 608 236 624 212 624C188 624 168 608 168 580C168 552 188 536 212 536ZM356 536C380 536 400 552 400 580C400 608 380 624 356 624C332 624 312 608 312 580C312 552 332 536 356 536Z" glyph-name="udieresis" horiz-adv-x="564" unicode="&#252;" /><glyph d="M92 136C92 36 148 -12 236 -12C316 -12 360 36 380 84V-12H384C400 0 442 6 464 8L540 16V36L512 44C487 51 476 60 476 84V480H472C456 468 416 462 392 460L312 452V432L344 424C372 417 380 408 380 384V96C360 68 320 48 280 48C216 48 188 84 188 164V480H184C168 468 126 462 104 460L28 452V432L56 424C81 417 92 408 92 384ZM312 536H328L252 644C234 668 222 676 208 676C192 676 180 664 180 648C180 632 190 621 208 608Z" glyph-name="ugrave" horiz-adv-x="564" unicode="&#249;" /><glyph d="M92 136C92 36 148 -12 236 -12C316 -12 360 36 380 84V-12H384C400 0 442 6 464 8L540 16V36L512 44C487 51 476 60 476 84V480H472C456 468 416 462 392 460L312 452V432L344 424C372 417 380 408 380 384V96C360 68 320 48 280 48C216 48 188 84 188 164V480H184C168 468 126 462 104 460L28 452V432L56 424C81 417 92 408 92 384ZM184 536H200L312 600C332 612 344 624 344 640C344 656 332 664 316 664C300 664 285 651 268 632ZM328 536H344L456 600C476 612 488 624 488 640C488 656 476 664 460 664C444 664 429 651 412 632Z" glyph-name="uhungarumlaut" horiz-adv-x="564" unicode="&#369;" /><glyph d="M92 136C92 36 148 -12 236 -12C316 -12 360 36 380 84V-12H384C400 0 442 6 464 8L540 16V36L512 44C487 51 476 60 476 84V480H472C456 468 416 462 392 460L312 452V432L344 424C372 417 380 408 380 384V96C360 68 320 48 280 48C216 48 188 84 188 164V480H184C168 468 126 462 104 460L28 452V432L56 424C81 417 92 408 92 384ZM176 536H392V580H176Z" glyph-name="umacron" horiz-adv-x="564" unicode="&#363;" /><glyph d="M4 -87V-136H504V-87Z" glyph-name="underscore" horiz-adv-x="508" unicode="_" /><glyph d="M132 0H256L210 -68C266 -76 298 -88 298 -120C298 -148 278 -164 238 -164C214 -164 190 -156 174 -148V-168C190 -176 214 -184 246 -184C306 -184 354 -164 354 -112C354 -64 302 -44 250 -37L276 0H400V28L368 32C328 37 316 44 316 72V588H340C360 588 408 588 444 572C468 548 480 508 496 452H520L512 632C496 624 468 620 432 620H100C64 620 36 624 20 632L12 452H36C52 508 64 548 88 572C124 588 172 588 192 588H216V72C216 44 204 37 164 32L132 28Z" glyph-name="uni021A" horiz-adv-x="532" unicode="&#538;" /><glyph d="M120 -68C176 -76 208 -88 208 -120C208 -148 188 -164 148 -164C124 -164 100 -156 84 -148V-168C100 -176 124 -184 156 -184C216 -184 264 -164 264 -112C264 -64 212 -44 160 -37L178 -10C185 -11 192 -12 200 -12C264 -12 304 20 324 76C308 60 284 44 252 44C204 44 180 64 180 132V416H312V456H180V572H164L92 488L32 440V416H88V104C88 46 114 6 161 -7Z" glyph-name="uni021B" horiz-adv-x="328" unicode="&#539;" /><glyph d="M52 308H273V330C270 330 235 335 233 335C207 338 201 341 201 353V628H185L40 558L49 541L126 564V353C126 341 117 338 92 335L52 330ZM164 0 584 620H536L116 0ZM382 46C382 9 437 -6 476 -6C564 -6 628 29 628 94C628 140 590 166 543 175C579 187 610 211 610 248C610 296 567 320 509 320C445 320 395 289 401 227H415C413 262 446 279 477 279C520 279 543 264 543 234C543 202 513 184 488 177C472 172 455 171 444 171V145C453 148 466 149 475 149C519 149 553 132 553 91C553 40 522 16 476 16C464 16 451 20 445 25L443 47C440 65 434 78 411 78C394 78 382 65 382 46Z" glyph-name="uni2153" horiz-adv-x="660" unicode="&#8531;" /><glyph d="M19 308H249L285 418H272L239 374C232 364 223 361 208 361H88C109 377 143 397 164 413C207 442 258 480 258 541C258 597 215 628 143 628C54 628 20 565 32 513H44C40 559 76 586 117 586C157 586 183 569 183 531C183 483 151 449 116 416L19 324ZM152 0 572 620H524L104 0ZM382 46C382 9 437 -6 476 -6C564 -6 628 29 628 94C628 140 590 166 543 175C579 187 610 211 610 248C610 296 567 320 509 320C445 320 395 289 401 227H415C413 262 446 279 477 279C520 279 543 264 543 234C543 202 513 184 488 177C472 172 455 171 444 171V145C453 148 466 149 475 149C519 149 553 132 553 91C553 40 522 16 476 16C464 16 451 20 445 25L443 47C440 65 434 78 411 78C394 78 382 65 382 46Z" glyph-name="uni2154" horiz-adv-x="660" unicode="&#8532;" /><glyph d="M52 308H273V330C270 330 235 335 233 335C207 338 201 341 201 353V628H185L40 558L49 541L126 564V353C126 341 117 338 92 335L52 330ZM160 0 580 620H532L112 0ZM382 46C382 8 437 -6 476 -6C563 -6 629 33 629 104C629 165 583 203 502 203C471 203 444 192 430 183C435 200 441 235 442 257H609L624 312H422C422 240 408 182 396 149H412C426 160 448 171 476 171C523 171 554 148 554 98C554 46 527 16 476 16C463 16 451 20 445 25L443 46C441 64 434 78 410 78C394 78 382 65 382 46Z" glyph-name="uni2155" horiz-adv-x="660" unicode="&#8533;" /><glyph d="M19 308H249L285 418H272L239 374C232 364 223 361 208 361H88C109 377 143 397 164 413C207 442 258 480 258 541C258 597 215 628 143 628C54 628 20 565 32 513H44C40 559 76 586 117 586C157 586 183 569 183 531C183 483 151 449 116 416L19 324ZM152 0 572 620H524L104 0ZM382 46C382 8 437 -6 476 -6C563 -6 629 33 629 104C629 165 583 203 502 203C471 203 444 192 430 183C435 200 441 235 442 257H609L624 312H422C422 240 408 182 396 149H412C426 160 448 171 476 171C523 171 554 148 554 98C554 46 527 16 476 16C463 16 451 20 445 25L443 46C441 64 434 78 410 78C394 78 382 65 382 46Z" glyph-name="uni2156" horiz-adv-x="660" unicode="&#8534;" /><glyph d="M120 302C208 302 272 337 272 402C272 448 234 474 187 483C223 495 254 519 254 556C254 604 211 628 153 628C89 628 39 597 45 535H59C57 570 90 587 121 587C164 587 187 572 187 542C187 510 157 492 132 485C116 480 99 479 88 479V453C97 456 110 457 119 457C163 457 197 440 197 399C197 348 166 324 120 324C108 324 95 328 89 333L87 355C84 373 78 386 55 386C38 386 26 373 26 354C26 317 81 302 120 302ZM144 0 564 620H516L96 0ZM382 46C382 8 437 -6 476 -6C563 -6 629 33 629 104C629 165 583 203 502 203C471 203 444 192 430 183C435 200 441 235 442 257H609L624 312H422C422 240 408 182 396 149H412C426 160 448 171 476 171C523 171 554 148 554 98C554 46 527 16 476 16C463 16 451 20 445 25L443 46C441 64 434 78 410 78C394 78 382 65 382 46Z" glyph-name="uni2157" horiz-adv-x="660" unicode="&#8535;" /><glyph d="M88 308H278V330C276 330 252 334 250 334C225 336 222 341 222 353V394H276V428H222V628H211C203 622 181 616 164 614L3 413V394H150V353C150 341 143 336 117 334L88 330ZM51 428C76 457 126 524 150 553V428ZM164 0 584 620H536L116 0ZM382 46C382 8 437 -6 476 -6C563 -6 629 33 629 104C629 165 583 203 502 203C471 203 444 192 430 183C435 200 441 235 442 257H609L624 312H422C422 240 408 182 396 149H412C426 160 448 171 476 171C523 171 554 148 554 98C554 46 527 16 476 16C463 16 451 20 445 25L443 46C441 64 434 78 410 78C394 78 382 65 382 46Z" glyph-name="uni2158" horiz-adv-x="660" unicode="&#8536;" /><glyph d="M52 308H273V330C270 330 235 335 233 335C207 338 201 341 201 353V628H185L40 558L49 541L126 564V353C126 341 117 338 92 335L52 330ZM164 0 584 620H536L116 0ZM378 143C378 41 439 -6 513 -6C595 -6 641 46 641 103C641 171 593 202 537 202C504 202 475 189 455 166C462 239 498 295 568 295C593 295 611 290 626 282V305C611 313 587 320 558 320C457 320 378 254 378 143ZM513 16C467 16 454 61 454 137V150C466 160 484 166 502 166C546 166 569 139 569 97C569 44 549 16 513 16Z" glyph-name="uni2159" horiz-adv-x="660" unicode="&#8537;" /><glyph d="M120 302C207 302 273 341 273 412C273 473 227 511 146 511C115 511 88 500 74 491C79 508 85 543 86 565H253L268 620H66C66 548 52 490 40 457H56C70 468 92 479 120 479C167 479 198 456 198 406C198 354 171 324 120 324C107 324 95 328 89 333L87 354C85 372 78 386 54 386C38 386 26 373 26 354C26 316 81 302 120 302ZM144 0 564 620H516L96 0ZM378 143C378 41 439 -6 513 -6C595 -6 641 46 641 103C641 171 593 202 537 202C504 202 475 189 455 166C462 239 498 295 568 295C593 295 611 290 626 282V305C611 313 587 320 558 320C457 320 378 254 378 143ZM513 16C467 16 454 61 454 137V150C466 160 484 166 502 166C546 166 569 139 569 97C569 44 549 16 513 16Z" glyph-name="uni215A" horiz-adv-x="660" unicode="&#8538;" /><glyph d="M52 308H273V330C270 330 235 335 233 335C207 338 201 341 201 353V628H185L40 558L49 541L126 564V353C126 341 117 338 92 335L52 330ZM160 0 580 620H532L112 0ZM385 73C385 19 439 -6 508 -6C583 -6 638 30 638 88C638 133 608 155 565 175L558 177C597 188 631 208 631 251C631 293 588 320 515 320C450 320 392 292 392 235C392 190 422 166 460 150C419 140 385 117 385 73ZM519 195C487 208 460 222 460 255C460 285 485 299 515 299C549 299 573 282 573 250C573 228 563 202 539 186ZM448 77C448 103 461 128 481 141L504 131C547 113 567 98 567 68C567 34 540 16 508 16C473 16 448 34 448 77Z" glyph-name="uni215B" horiz-adv-x="660" unicode="&#8539;" /><glyph d="M120 302C208 302 272 337 272 402C272 448 234 474 187 483C223 495 254 519 254 556C254 604 211 628 153 628C89 628 39 597 45 535H59C57 570 90 587 121 587C164 587 187 572 187 542C187 510 157 492 132 485C116 480 99 479 88 479V453C97 456 110 457 119 457C163 457 197 440 197 399C197 348 166 324 120 324C108 324 95 328 89 333L87 355C84 373 78 386 55 386C38 386 26 373 26 354C26 317 81 302 120 302ZM144 0 564 620H516L96 0ZM385 73C385 19 439 -6 508 -6C583 -6 638 30 638 88C638 133 608 155 565 175L558 177C597 188 631 208 631 251C631 293 588 320 515 320C450 320 392 292 392 235C392 190 422 166 460 150C419 140 385 117 385 73ZM519 195C487 208 460 222 460 255C460 285 485 299 515 299C549 299 573 282 573 250C573 228 563 202 539 186ZM448 77C448 103 461 128 481 141L504 131C547 113 567 98 567 68C567 34 540 16 508 16C473 16 448 34 448 77Z" glyph-name="uni215C" horiz-adv-x="660" unicode="&#8540;" /><glyph d="M120 302C207 302 273 341 273 412C273 473 227 511 146 511C115 511 88 500 74 491C79 508 85 543 86 565H253L268 620H66C66 548 52 490 40 457H56C70 468 92 479 120 479C167 479 198 456 198 406C198 354 171 324 120 324C107 324 95 328 89 333L87 354C85 372 78 386 54 386C38 386 26 373 26 354C26 316 81 302 120 302ZM144 0 564 620H516L96 0ZM385 73C385 19 439 -6 508 -6C583 -6 638 30 638 88C638 133 608 155 565 175L558 177C597 188 631 208 631 251C631 293 588 320 515 320C450 320 392 292 392 235C392 190 422 166 460 150C419 140 385 117 385 73ZM519 195C487 208 460 222 460 255C460 285 485 299 515 299C549 299 573 282 573 250C573 228 563 202 539 186ZM448 77C448 103 461 128 481 141L504 131C547 113 567 98 567 68C567 34 540 16 508 16C473 16 448 34 448 77Z" glyph-name="uni215D" horiz-adv-x="660" unicode="&#8541;" /><glyph d="M66 308H120L283 607V620H47L27 564H234ZM112 0 532 620H484L64 0ZM385 73C385 19 439 -6 508 -6C583 -6 638 30 638 88C638 133 608 155 565 175L558 177C597 188 631 208 631 251C631 293 588 320 515 320C450 320 392 292 392 235C392 190 422 166 460 150C419 140 385 117 385 73ZM519 195C487 208 460 222 460 255C460 285 485 299 515 299C549 299 573 282 573 250C573 228 563 202 539 186ZM448 77C448 103 461 128 481 141L504 131C547 113 567 98 567 68C567 34 540 16 508 16C473 16 448 34 448 77Z" glyph-name="uni215E" horiz-adv-x="660" unicode="&#8542;" /><glyph d="M92 136C92 36 148 -12 236 -12C316 -12 360 36 380 84V2C334 -18 244 -65 244 -116C244 -164 292 -184 344 -184C372 -184 392 -176 404 -168V-148C392 -156 372 -160 356 -160C320 -160 300 -144 300 -108C300 -69 342 -37 380 -12H384C400 0 442 6 464 8L540 16V36L512 44C487 51 476 60 476 84V480H472C456 468 416 462 392 460L312 452V432L344 424C372 417 380 408 380 384V96C360 68 320 48 280 48C216 48 188 84 188 164V480H184C168 468 126 462 104 460L28 452V432L56 424C81 417 92 408 92 384Z" glyph-name="uogonek" horiz-adv-x="564" unicode="&#371;" /><glyph d="M92 136C92 36 148 -12 236 -12C316 -12 360 36 380 84V-12H384C400 0 442 6 464 8L540 16V36L512 44C487 51 476 60 476 84V480H472C456 468 416 462 392 460L312 452V432L344 424C372 417 380 408 380 384V96C360 68 320 48 280 48C216 48 188 84 188 164V480H184C168 468 126 462 104 460L28 452V432L56 424C81 417 92 408 92 384ZM284 536C328 536 368 564 368 608C368 652 328 680 284 680C240 680 200 652 200 608C200 564 240 536 284 536ZM284 552C256 552 240 576 240 608C240 640 256 664 284 664C312 664 328 640 328 608C328 576 312 552 284 552Z" glyph-name="uring" horiz-adv-x="564" unicode="&#367;" /><glyph d="M92 136C92 36 148 -12 236 -12C316 -12 360 36 380 84V-12H384C400 0 442 6 464 8L540 16V36L512 44C487 51 476 60 476 84V480H472C456 468 416 462 392 460L312 452V432L344 424C372 417 380 408 380 384V96C360 68 320 48 280 48C216 48 188 84 188 164V480H184C168 468 126 462 104 460L28 452V432L56 424C81 417 92 408 92 384ZM170 540H186C186 568 198 592 226 592C262 592 286 536 326 536C378 536 398 588 398 640H382C382 612 370 588 342 588C306 588 282 644 242 644C190 644 170 592 170 540Z" glyph-name="utilde" horiz-adv-x="564" unicode="&#361;" /><glyph d="M192 -12H224L396 388C406 411 412 421 432 428L444 432V456H288V432L324 424C348 419 352 410 344 388L244 120L148 384C139 409 140 419 160 424L192 432V456H0V432L12 428C28 423 34 412 40 396Z" glyph-name="v" horiz-adv-x="444" unicode="v" /><glyph d="M192 -12H224L350 270L456 -12H488L648 388C658 411 664 421 684 428L696 432V456H540V432L576 424C600 419 604 410 596 388L504 120L408 384C399 409 400 419 420 424L452 432V456H264V432L276 428C292 423 298 412 304 396L328 331L244 120L148 384C139 409 140 419 160 424L192 432V456H0V432L12 428C28 423 34 412 40 396Z" glyph-name="w" horiz-adv-x="696" unicode="w" /><glyph d="M192 -12H224L350 270L456 -12H488L648 388C658 411 664 421 684 428L696 432V456H540V432L576 424C600 419 604 410 596 388L504 120L408 384C399 409 400 419 420 424L452 432V456H264V432L276 428C292 423 298 412 304 396L328 331L244 120L148 384C139 409 140 419 160 424L192 432V456H0V432L12 428C28 423 34 412 40 396ZM312 536H328L432 608C450 621 460 632 460 648C460 664 448 676 432 676C418 676 405 669 388 644Z" glyph-name="wacute" horiz-adv-x="696" unicode="&#7811;" /><glyph d="M192 -12H224L350 270L456 -12H488L648 388C658 411 664 421 684 428L696 432V456H540V432L576 424C600 419 604 410 596 388L504 120L408 384C399 409 400 419 420 424L452 432V456H264V432L276 428C292 423 298 412 304 396L328 331L244 120L148 384C139 409 140 419 160 424L192 432V456H0V432L12 428C28 423 34 412 40 396ZM238 536H254L354 600H358L454 536H470L362 668H350Z" glyph-name="wcircumflex" horiz-adv-x="696" unicode="&#373;" /><glyph d="M192 -12H224L350 270L456 -12H488L648 388C658 411 664 421 684 428L696 432V456H540V432L576 424C600 419 604 410 596 388L504 120L408 384C399 409 400 419 420 424L452 432V456H264V432L276 428C292 423 298 412 304 396L328 331L244 120L148 384C139 409 140 419 160 424L192 432V456H0V432L12 428C28 423 34 412 40 396ZM284 536C308 536 328 552 328 580C328 608 308 624 284 624C260 624 240 608 240 580C240 552 260 536 284 536ZM428 536C452 536 472 552 472 580C472 608 452 624 428 624C404 624 384 608 384 580C384 552 404 536 428 536Z" glyph-name="wdieresis" horiz-adv-x="696" unicode="&#7813;" /><glyph d="M192 -12H224L350 270L456 -12H488L648 388C658 411 664 421 684 428L696 432V456H540V432L576 424C600 419 604 410 596 388L504 120L408 384C399 409 400 419 420 424L452 432V456H264V432L276 428C292 423 298 412 304 396L328 331L244 120L148 384C139 409 140 419 160 424L192 432V456H0V432L12 428C28 423 34 412 40 396ZM384 536H400L324 644C306 668 294 676 280 676C264 676 252 664 252 648C252 632 262 621 280 608Z" glyph-name="wgrave" horiz-adv-x="696" unicode="&#7809;" /><glyph d="M4 0H180V24L148 28C130 30 124 38 124 48C124 55 126 63 132 72L199 178L284 44C290 35 292 27 292 20C292 12 292 6 288 0H436V24L420 28C395 34 388 46 376 64L255 254L364 392C379 411 390 418 420 428L432 432V456H256V432L288 428C306 426 312 418 312 408C312 401 309 393 304 384L239 281L156 412C151 420 148 429 148 436C148 444 148 450 152 456H4V432L16 428C43 419 53 408 64 392L182 204L72 64C57 45 46 38 16 28L4 24Z" glyph-name="x" horiz-adv-x="440" unicode="x" /><glyph d="M140 -248 236 0 392 388C402 411 412 421 432 428L444 432V456H288V432L320 424C345 418 347 407 340 388L243 120L148 384C139 409 140 419 160 424L192 432V456H0V432L12 428C28 423 34 412 40 396L191 -8L68 -248Z" glyph-name="y" horiz-adv-x="444" unicode="y" /><glyph d="M140 -248 236 0 392 388C402 411 412 421 432 428L444 432V456H288V432L320 424C345 418 347 407 340 388L243 120L148 384C139 409 140 419 160 424L192 432V456H0V432L12 428C28 423 34 412 40 396L191 -8L68 -248ZM200 536H216L320 608C338 621 348 632 348 648C348 664 336 676 320 676C306 676 293 669 276 644Z" glyph-name="yacute" horiz-adv-x="444" unicode="&#253;" /><glyph d="M140 -248 236 0 392 388C402 411 412 421 432 428L444 432V456H288V432L320 424C345 418 347 407 340 388L243 120L148 384C139 409 140 419 160 424L192 432V456H0V432L12 428C28 423 34 412 40 396L191 -8L68 -248ZM126 536H142L242 600H246L342 536H358L250 668H238Z" glyph-name="ycircumflex" horiz-adv-x="444" unicode="&#375;" /><glyph d="M140 -248 236 0 392 388C402 411 412 421 432 428L444 432V456H288V432L320 424C345 418 347 407 340 388L243 120L148 384C139 409 140 419 160 424L192 432V456H0V432L12 428C28 423 34 412 40 396L191 -8L68 -248ZM172 536C196 536 216 552 216 580C216 608 196 624 172 624C148 624 128 608 128 580C128 552 148 536 172 536ZM316 536C340 536 360 552 360 580C360 608 340 624 316 624C292 624 272 608 272 580C272 552 292 536 316 536Z" glyph-name="ydieresis" horiz-adv-x="444" unicode="&#255;" /><glyph d="M60 232H216V152H60V116H216V72C216 44 204 33 164 28L132 24V0H400V24L368 28C328 33 316 44 316 72V116H472V152H316V232H472V268H318L472 556C481 572 490 587 512 592L528 596V620H360V596L396 588C424 582 423 566 412 544L292 304L168 540C152 571 152 583 176 588L216 596V620H-4V596L12 592C30 588 38 575 48 556L202 268H60Z" glyph-name="yen" horiz-adv-x="528" unicode="&#165;" /><glyph d="M72 232H228V152H72V116H228V72C228 44 216 33 176 28L144 24V0H412V24L380 28C340 33 328 44 328 72V116H484V152H328V232H484V268H330L484 556C493 572 502 586 524 592L540 596V620H372V596L408 588C436 582 435 566 424 544L304 304L180 540C165 571 164 583 188 588L228 596V620H8V596L24 592C42 588 51 575 60 556L214 268H72Z" glyph-name="yen.PPF" horiz-adv-x="548" /><glyph d="M140 -248 236 0 392 388C402 411 412 421 432 428L444 432V456H288V432L320 424C345 418 347 407 340 388L243 120L148 384C139 409 140 419 160 424L192 432V456H0V432L12 428C28 423 34 412 40 396L191 -8L68 -248ZM272 536H288L212 644C194 668 182 676 168 676C152 676 140 664 140 648C140 632 150 621 168 608Z" glyph-name="ygrave" horiz-adv-x="444" unicode="&#7923;" /><glyph d="M24 0H320C338 0 362 -8 376 -16L392 156H368L340 80C329 51 315 36 280 36H148L388 452V456H100C83 456 52 463 36 472L40 424L36 312H60L84 388C92 413 102 420 128 420H264L24 4Z" glyph-name="z" horiz-adv-x="412" unicode="z" /><glyph d="M24 0H320C338 0 362 -8 376 -16L392 156H368L340 80C329 51 315 36 280 36H148L388 452V456H100C83 456 52 463 36 472L40 424L36 312H60L84 388C92 413 102 420 128 420H264L24 4ZM168 536H184L288 608C306 621 316 632 316 648C316 664 304 676 288 676C274 676 261 669 244 644Z" glyph-name="zacute" horiz-adv-x="412" unicode="&#378;" /><glyph d="M24 0H320C338 0 362 -8 376 -16L392 156H368L340 80C329 51 315 36 280 36H148L388 452V456H100C83 456 52 463 36 472L40 424L36 312H60L84 388C92 413 102 420 128 420H264L24 4ZM206 536H218L326 668H310L214 604H210L110 668H94Z" glyph-name="zcaron" horiz-adv-x="412" unicode="&#382;" /><glyph d="M24 0H320C338 0 362 -8 376 -16L392 156H368L340 80C329 51 315 36 280 36H148L388 452V456H100C83 456 52 463 36 472L40 424L36 312H60L84 388C92 413 102 420 128 420H264L24 4ZM212 536C240 536 260 560 260 588C260 616 240 640 212 640C184 640 164 616 164 588C164 560 184 536 212 536Z" glyph-name="zdotaccent" horiz-adv-x="412" unicode="&#380;" /><glyph d="M264 -12C404 -12 500 120 500 312C500 504 408 636 264 636C120 636 28 504 28 312C28 120 124 -12 264 -12ZM264 12C168 12 136 152 136 312C136 476 168 612 264 612C360 612 392 476 392 312C392 152 360 12 264 12Z" glyph-name="zero" horiz-adv-x="528" unicode="0" /><glyph d="M284 -12C424 -12 540 112 540 312C540 512 428 636 284 636C140 636 28 512 28 312C28 112 144 -12 284 -12ZM284 12C188 12 136 144 136 312C136 484 188 612 284 612C380 612 432 484 432 312C432 144 380 12 284 12Z" glyph-name="zero.PPF" horiz-adv-x="568" /><glyph d="M28 236C28 92 124 -12 264 -12C404 -12 500 92 500 236C500 380 404 480 264 480C124 480 28 380 28 236ZM264 16C188 16 132 95 132 236C132 377 188 452 264 452C340 452 396 377 396 236C396 95 340 16 264 16Z" glyph-name="zero.TOSF" horiz-adv-x="528" /><glyph d="M152 -6C233 -6 290 56 290 156C290 258 233 319 152 319C71 319 16 258 16 156C16 56 73 -6 152 -6ZM152 16C106 16 92 79 92 156C92 237 106 297 152 297C198 297 214 237 214 156C214 79 198 16 152 16Z" glyph-name="zero.denominator" horiz-adv-x="304" /><glyph d="M152 302C233 302 290 364 290 464C290 566 233 627 152 627C71 627 16 566 16 464C16 364 73 302 152 302ZM152 324C106 324 92 387 92 464C92 545 106 605 152 605C198 605 214 545 214 464C214 387 198 324 152 324Z" glyph-name="zero.numerator" horiz-adv-x="304" /><glyph d="M28 236C28 92 128 -12 268 -12C408 -12 508 92 508 236C508 380 408 480 268 480C128 480 28 380 28 236ZM268 16C192 16 132 95 132 236C132 377 192 452 268 452C344 452 404 377 404 236C404 95 344 16 268 16Z" glyph-name="zero.oldstyle" horiz-adv-x="536" /></font>
</defs>
</svg>
